Что произошло 11 сентября / What Happened on September 11 (2019) HDTVRip от Generalfilm

Reply to topic
 
Author Message

Brux ®

Gender: Male

Longevity: 3 years 11 months

Posts: 31

Post 29-May-2022 14:17

[Quote]

Что произошло 11 сентября / What Happened on September 11 Год выпуска: 2019
Жанр: Документальный
Выпущено: США
Режиссер: Эми Шатц
О фильме: Короткий и емкий рассказ о самом страшном теракте в истории. Опытнейший телепродюсер Эми Шатц ставит перед собой очень сложную задачу: объяснить детям, что случилось 11 сентября 2001 года в Нью-Йорке. Шатц много лет работала над самыми разными детскими передачами – и опыт помог ей найти нужную интонацию для такого разговора. Она очень просто и ясно рассказывает историю захвата самолетов, их столкновения с башнями Всемирного Торгового Центра, крушения небоскребов, той паники и хаоса, которые царили в Нью-Йорке в этот день. Получилось настолько просто и ясно, что фильм может быть интересным не только и не столько детям, сколько тем, кто был слишком маленьким двадцать лет назад или просто забыл все эти трагические события.
Качество: HDTVRip
Видео: XviD, 1526 Кбит/с, 720x400
Аудио: AC3, 2 ch, 192 Кбит/с
Продолжительность: 00:28:20
Перевод / Озвучка: Профессиональный [многоголосый]
Субтитры: Нет

Скриншоты



MediaInfo

General
Complete name : C:\Что произошло 11 сентября [Generalfilm].avi
Format : AVI
Format/Info : Audio Video Interleave
File size : 350 MiB
Duration : 28 min 20 s
Overall bit rate : 1 728 kb/s
Movie name : Что произошло 11 сентября [Generalfilm]
Director : Brux
Writing application : VirtualDubMod 1.5.10.3 | www.virtualdub-fr.org || (build 2550/release)
Video
ID : 0
Format : MPEG-4 Visual
Format profile : Advanced Simple@L5
Format settings : BVOP1
Format settings, BVOP : 1
Format settings, QPel : No
Format settings, GMC : No warppoints
Format settings, Matrix : Default (MPEG)
Codec ID : XVID
Codec ID/Hint : XviD
Duration : 28 min 20 s
Bit rate : 1 526 kb/s
Width : 720 pixels
Height : 400 pixels
Display aspect ratio : 16:9
Frame rate : 25.000 FPS
Color space : YUV
Chroma subsampling : 4:2:0
Bit depth : 8 bits
Scan type : Progressive
Compression mode : Lossy
Bits/(Pixel*Frame) : 0.212
Stream size : 309 MiB (88%)
Writing library : XviD 73
Audio
ID : 1
Format : AC-3
Format/Info : Audio Coding 3
Commercial name : Dolby Digital
Codec ID : 2000
Duration : 28 min 20 s
Bit rate mode : Constant
Bit rate : 192 kb/s
Channel(s) : 2 channels
Channel layout : L R
Sampling rate : 48.0 kHz
Frame rate : 31.250 FPS (1536 SPF)
Compression mode : Lossy
Stream size : 38.9 MiB (11%)
Alignment : Split across interleaves
Interleave, duration : 40 ms (1.00 video frame)
Interleave, preload duratio : 500 ms
Service kind : Complete Main
Релиз от: Brux
[Profile] [PM]
Display posts:    
Reply to topic

Current time is: 27-Nov 05:16

All times are UTC + 3



You cannot post new topics in this forum
You cannot reply to topics in this forum
You cannot edit your posts in this forum
You cannot delete your posts in this forum
You cannot vote in polls in this forum
You cannot attach files in this forum
You cannot download files in this forum