Василий Ливанов. Я умею держать удар (2015) HDTV 1080i

Reply to topic
 
Author Message

Brux ®

Gender: Male

Longevity: 3 years 11 months

Posts: 31

Post 05-Jun-2022 13:28

[Quote]

Василий Ливанов. Я умею держать удар Год выпуска: 2015
Жанр: Документальный
Выпущено: Россия, ООО "ЗИМА ПРОДАКШН"
Режиссер: Георгий Ананов
В ролях: Василий Ливанов, Елена Ливанова, Борис Ливанов (II), Никита Михалков, Алла Сурикова
О фильме: Василий Ливанов – один из самых популярных российских киноактёров. А ещё он писатель, сценарист, режиссёр, художник. В фильме рассказывается о его необычной творческой судьбе. Вопреки воле родителей Ливанов стал актёром. Со своей женой Еленой, известным художником-мультипликатором, он прожил 45 лет. Серьёзным испытанием для семьи стала трагедия, случившаяся со старшим сыном Борисом...
Качество: HDTV 1080i
Видео: MPEG-4 AVC, 5400 Кбит/с, 1920x1080, 25 кадр/с
Аудио: Русский (MP2, 2 ch, 192 Кбит/с)
Продолжительность: 00:44:02
Перевод: Не требуется
Субтитры: Нет

Скриншоты



MediaInfo

General
ID : 1 (0x1)
Complete name : C:\Василий Ливанов. Я умею держать удар [Generalfilm].ts
Format : MPEG-TS
File size : 1.79 GiB
Duration : 44 min 2 s
Overall bit rate mode : Variable
Overall bit rate : 5 815 kb/s
Video
ID : 211 (0xD3)
Menu ID : 354 (0x162)
Format : AVC
Format/Info : Advanced Video Codec
Format profile : High@L4.1
Format settings : CABAC / 2 Ref Frames
Format settings, CABAC : Yes
Format settings, Reference : 2 frames
Format settings, picture st : Frame
Codec ID : 27
Duration : 44 min 2 s
Bit rate mode : Constant
Bit rate : 5 400 kb/s
Width : 1 920 pixels
Height : 1 080 pixels
Display aspect ratio : 16:9
Frame rate : 25.000 FPS
Standard : PAL
Color space : YUV
Chroma subsampling : 4:2:0
Bit depth : 8 bits
Scan type : Interlaced
Scan type, store method : Interleaved fields
Scan order : Top Field First
Bits/(Pixel*Frame) : 0.104
Stream size : 1.64 GiB (92%)
Color range : Limited
Color primaries : BT.709
Transfer characteristics : BT.709
Matrix coefficients : BT.709
Audio
ID : 221 (0xDD)
Menu ID : 354 (0x162)
Format : MPEG Audio
Format version : Version 1
Format profile : Layer 2
Codec ID : 3
Duration : 44 min 2 s
Bit rate mode : Constant
Bit rate : 192 kb/s
Channel(s) : 2 channels
Sampling rate : 48.0 kHz
Frame rate : 41.667 FPS (1152 SPF)
Compression mode : Lossy
Stream size : 60.5 MiB (3%)
Language : English
Релиз от: Brux
[Profile] [PM]
Display posts:    
Reply to topic

Current time is: 27-Nov 05:35

All times are UTC + 3



You cannot post new topics in this forum
You cannot reply to topics in this forum
You cannot edit your posts in this forum
You cannot delete your posts in this forum
You cannot vote in polls in this forum
You cannot attach files in this forum
You cannot download files in this forum