Огонь (2020) BDRip-AVC | GER Transfer | Лицензия

Reply to topic
 
Author Message

HardwareMining ®

Gender: Male

Longevity: 3 years 1 month

Posts: 304

Post 07-Jun-2022 15:32

[Quote]

Огонь
Год выпуска: 2020
Жанр: драма, боевик
Выпущено: Россия | Студия Тритэ
Режиссер: Алексей Нужный
В ролях: Константин Хабенский, Иван Янковский, Стася Милославская, Антон Богданов, Виктор Добронравов, Роман Курцын, Тихон Жизневский, Ирина Горбачёва, Евгения Дмитриева, Юрий Кузнецов
О фильме:
После гибели подчинённого бывалый инструктор бригады пожарных Алексей Соколов хотел было уволиться, но лето в России — жаркая пора. Взяв в команду шестым нахального новичка, парня своей дочери, Соколов отправляется на очередное задание в Карелию. И это задание будет гораздо сложнее, чем он мог себе представить.

Качество: BDRip-AVC
Видео: AVC, 1024x426 (2,40:1), 24 fps, 1337 Kbit/s (0.128 bit/pixel)
Аудио: русский, AC3, 5.1, 48 kHz, 448 kbps CBR
Продолжительность: 02:11:58
Перевод: Не требуется | Лицензия
Субтитры: Отсутствуют

Скриншоты

MediaInfo

Общее
Уникальный идентификатор : 250314380098362511449568102372693321342 (0xBC50CBC79672E6EB8767A41A8A35267E)
Полное имя : G:\GF\Ogon.2020.BDRip.AVC.Rip.by.HardwareMining.R.G.Generalfilm.mkv
Формат : Matroska
Версия формата : Version 4
Размер файла : 1,65 Гбайт
Продолжительность : 2 ч. 11 м.
Общий поток : 1 787 Кбит/сек
Название фильма : Ogon.2020.BDRip.AVC.Rip.by.HardwareMining.R.G.Generalfilm
Дата кодирования : UTC 2022-06-06 12:09:50
Программа кодирования : mkvmerge v6.8.0 ('Theme for Great Cities') 64bit built on Mar 2 2014 21:34:26
Библиотека кодирования : libebml v1.3.0 + libmatroska v1.4.1
Обложка : Yes
Attachments : cover.png
Видео
Идентификатор : 1
Формат : AVC
Формат/Информация : Advanced Video Codec
Профиль формата : High@L4.1
Настройки формата : CABAC / 9 Ref Frames
Параметр CABAC формата : Да
Параметр RefFrames формата : 9 кадров
Идентификатор кодека : V_MPEG4/ISO/AVC
Продолжительность : 2 ч. 11 м.
Битрейт : 1 337 Кбит/сек
Ширина : 1 024 пикселя
Высота : 426 пикселей
Соотношение сторон : 2,40:1
Режим частоты кадров : Постоянный
Частота кадров : 24,000 кадра/сек
Цветовое пространство : YUV
Субдискретизация насыщенности : 4:2:0
Битовая глубина : 8 бит
Тип развёртки : Прогрессивная
Бит/(Пиксели*Кадры) : 0.128
Размер потока : 1,20 Гбайт (73%)
Библиотека кодирования : x264 core 148 r2638 7599210
Настройки программы : cabac=1 / ref=9 / deblock=1:-2:-1 / analyse=0x3:0x113 / me=umh / subme=10 / psy=1 / psy_rd=0.00:0.15 / mixed_ref=1 / me_range=32 / chroma_me=1 / trellis=2 / 8x8dct=1 / cqm=0 / deadzone=21,11 / fast_pskip=0 / chroma_qp_offset=-3 / threads=6 / lookahead_threads=1 / sliced_threads=0 / nr=0 / decimate=0 / interlaced=0 / bluray_compat=0 / constrained_intra=0 / bframes=10 / b_pyramid=2 / b_adapt=2 / b_bias=0 / direct=1 / weightb=1 / open_gop=0 / weightp=2 / keyint=240 / keyint_min=24 / scenecut=40 / intra_refresh=0 / rc_lookahead=40 / rc=2pass / mbtree=0 / bitrate=1337 / ratetol=1.0 / qcomp=0.65 / qpmin=0 / qpmax=69 / qpstep=4 / cplxblur=20.0 / qblur=0.5 / vbv_maxrate=50000 / vbv_bufsize=65500 / nal_hrd=none / filler=0 / ip_ratio=1.40 / pb_ratio=1.30 / aq=1:2.00
Язык : English
Default : Да
Forced : Нет
Аудио
Идентификатор : 2
Формат : AC-3
Формат/Информация : Audio Coding 3
Коммерческое название : Dolby Digital
Идентификатор кодека : A_AC3
Продолжительность : 2 ч. 11 м.
Вид битрейта : Постоянный
Битрейт : 448 Кбит/сек
Каналы : 6 каналов
Channel layout : L R C LFE Ls Rs
Частота : 48,0 КГц
Частота кадров : 31,250 кадров/сек (1536 SPF)
Метод сжатия : С потерями
Размер потока : 423 Мбайт (25%)
Заголовок : Лицензия
Язык : Russian
Service kind : Complete Main
Default : Да
Forced : Да
Меню
00:00:00.000 : ru:Глава 01
00:04:45.083 : ru:Глава 02
00:10:52.125 : ru:Глава 03
00:17:12.375 : ru:Глава 04
00:25:08.083 : ru:Глава 05
00:38:17.000 : ru:Глава 06
00:48:36.208 : ru:Глава 07
00:58:45.833 : ru:Глава 08
01:07:42.875 : ru:Глава 09
01:14:53.083 : ru:Глава 10
01:22:13.500 : ru:Глава 11
01:27:49.125 : ru:Глава 12
01:34:50.000 : ru:Глава 13
01:45:05.042 : ru:Глава 14
01:50:53.042 : ru:Глава 15
02:02:25.500 : ru:Глава 16
Релиз от:
[Profile] [PM]
Display posts:    
Reply to topic

Current time is: 27-Nov 05:58

All times are UTC + 3



You cannot post new topics in this forum
You cannot reply to topics in this forum
You cannot edit your posts in this forum
You cannot delete your posts in this forum
You cannot vote in polls in this forum
You cannot attach files in this forum
You cannot download files in this forum