Оби-Ван Кеноби [1-6 серия из 6] (2022) WEB-DLRip от Files-x | AlexFilm

Reply to topic
 
Author Message

bond74 ®

Gender: Male

Longevity: 4 years

Posts: 1822

Post 25-Jun-2022 20:27

[Quote]

Оби-Ван Кеноби Год выпуска: 2022
Жанр: Боевик, приключения, фантастика, супергерой
Выпущено: США, Lucasfilm Ltd., Walt Disney Studios
Режиссер: Дебора Чоу
В ролях: Хейден Кристенсен, Руперт Френд, Эван МакГрегор, Джоэл Эдгертон, Майя Эрскин, Кумэйл Нанджиани, Моусес Ингрэм, Бонни Пессе, Бенни Сэфди, О`Ши Джексон мл.
О фильме: Мастер-джедай Оби-Ван Кеноби (Юэн Макгрегор) живет в изгнании на пустынном Татуине, где присматривает за совсем еще юным Люком Скайуокером (Грант Фили). Бен старается не привлекать к себе внимание, перебиваясь низкооплачиваемыми заработками, однако обстоятельства вынуждают его выйти из тени.
Качество: WEB-DLRip
Видео: XviD, ~ 1600 Кбит/с, 720x304, 25 кадр/с
Аудио: AC3, 2 ch, 192 Кбит/с
Продолжительность: 6 x ~ 00:45:00
Перевод: Дублированный
Субтитры: Русские, английские

Скриншоты




MediaInfo

General
Complete name : F:\Lostfilm\Obi-Wan Kenobi.2022 WEBDLRip.AlexFilm\05. Obi-Wan Kenobi.2022 WEBDLRip.AlexFilm.Files-x.avi
Format : AVI
Format/Info : Audio Video Interleave
File size : 576 MiB
Duration : 40 min 17 s
Overall bit rate : 2 000 kb/s
Video
ID : 0
Format : MPEG-4 Visual
Format profile : Advanced Simple@L5
Format settings : BVOP1 / Custom Matrix
Format settings, BVOP : 1
Format settings, QPel : No
Format settings, GMC : No warppoints
Format settings, Matrix : Custom
Codec ID : XVID
Codec ID/Hint : XviD
Duration : 40 min 17 s
Bit rate : 1 598 kb/s
Width : 720 pixels
Height : 304 pixels
Display aspect ratio : 2.35:1
Frame rate : 24.000 FPS
Color space : YUV
Chroma subsampling : 4:2:0
Bit depth : 8 bits
Scan type : Progressive
Compression mode : Lossy
Bits/(Pixel*Frame) : 0.304
Stream size : 460 MiB (80%)
Writing library : XviD 1.2.1 (UTC 2008-12-04)
Audio #1
ID : 1
Format : AC-3
Format/Info : Audio Coding 3
Commercial name : Dolby Digital
Codec ID : 2000
Duration : 40 min 17 s
Bit rate mode : Constant
Bit rate : 192 kb/s
Channel(s) : 2 channels
Channel layout : L R
Sampling rate : 48.0 kHz
Frame rate : 31.250 FPS (1536 SPF)
Compression mode : Lossy
Stream size : 55.3 MiB (10%)
Alignment : Aligned on interleaves
Interleave, duration : 32 ms (0.77 video frame)
Service kind : Complete Main
Audio #2
ID : 2
Format : AC-3
Format/Info : Audio Coding 3
Commercial name : Dolby Digital
Codec ID : 2000
Duration : 40 min 17 s
Bit rate mode : Constant
Bit rate : 192 kb/s
Channel(s) : 2 channels
Channel layout : L R
Sampling rate : 48.0 kHz
Frame rate : 31.250 FPS (1536 SPF)
Compression mode : Lossy
Stream size : 55.3 MiB (10%)
Alignment : Aligned on interleaves
Interleave, duration : 32 ms (0.77 video frame)
Service kind : Complete Main

Раздача ведётся путём добавления новых серий

Внимание! Раздача ведётся путём добавления новых серий; при каждом добавлении создаётся новый торрент.
Чтобы начать докачку новой серии, пользователям необходимо сделать следующее:
1. Остановить скачивание;
2. Удалить старый торрент у себя из клиента (старые серии удалять не надо);
3. Скачать новый торрент и запустить его у себя в клиенте вместо старого, при этом указать клиенту путь в старую папку куда и должно происходить скачивание новых серий. Ваш клиент при этом должен произвести хеширование (проверку) старой папки и будет докачивать только те серии, которых у вас ещё нет. Старые серии при этом не удаляются, а продолжают раздаваться! Eсли вы уже удалили старые серии, то предотвратить повторную закачку старых серий можно, отжав галочку в соответствующих местах при запуске нового торрента.
Релиз от:

Release was prepared by RG Files-x

[Profile] [PM]
Display posts:    
Reply to topic

Current time is: 27-Nov 05:12

All times are UTC + 3



You cannot post new topics in this forum
You cannot reply to topics in this forum
You cannot edit your posts in this forum
You cannot delete your posts in this forum
You cannot vote in polls in this forum
You cannot attach files in this forum
You cannot download files in this forum