Приключения царя / Olympicos (2021) WEB-DLRip от Files-х | D | Локализованная версия

Reply to topic
 
Author Message

bond74 ®

Gender: Male

Longevity: 4 years

Posts: 1822

Post 07-Jul-2022 22:35

[Quote]

Приключения царя / Olympicos
Год выпуска: 2021
Жанр: Мультфильм
Выпущено: Армения, Анимационная студия Роберта Саакянца, Sharm Pictures
Режиссер: Давид Саакянц, Айк Саакянц
Роли охвучивают: Арман Навасардян, Мкртыч Арзуманян, Джульетта Степанян, Грант Тохатян, Арташес Алексанян, Заруи Бабаян, Григор Багдасарян, Нарек Дурян, Армен Газарян, Арсен Григорян
О фильме: История эта случилась давным-давно — во время античной Олимпиады, когда в Грецию со всех сторон света съезжались лучшие атлеты. Среди славных спортсменов оказался самый настоящий Царь, прибывший из одного далекого, но очень солнечного тридевятого царства. Вместе с ним в команде — прекрасная жена, острая на язык теща, смышленая дочурка и даже домашний аист… С такой поддержкой — победа гарантирована! Но только вот незадача: их буквально по пятам преследует заклятый враг царя. Коварный злодей хочет погубить правителя за пределами его страны и занять трон.

Качество: WEB-DLRip | Локализованная версия
Видео: XviD, ~ 1994 Кбит/с, 720x320, 25 кадр/с
Аудио: AC3, 6 ch, 640 Кбит/с
Продолжительность: 01:14:24
Перевод: Профессиональный (полное дублирование) | KION
Cубтитры: Нет

Скриншоты


MediaInfo

General
Complete name : E:\Olympicos.2021.WEB-DLRip. Files-x.avi
Format : AVI
Format/Info : Audio Video Interleave
File size : 1.37 GiB
Duration : 1 h 14 min
Overall bit rate : 2 643 kb/s
Writing application : VirtualDubMod 1.5.10.3 | www.virtualdub-fr.org || (build 2550/release)
Writing library : VirtualDubMod build 2550/release
Video
ID : 0
Format : MPEG-4 Visual
Format profile : Advanced Simple@L5
Format settings : BVOP1 / Custom Matrix
Format settings, BVOP : 1
Format settings, QPel : No
Format settings, GMC : No warppoints
Format settings, Matrix : Custom
Codec ID : XVID
Codec ID/Hint : XviD
Duration : 1 h 14 min
Bit rate : 1 994 kb/s
Width : 720 pixels
Height : 320 pixels
Display aspect ratio : 2.25:1
Frame rate : 25.000 FPS
Color space : YUV
Chroma subsampling : 4:2:0
Bit depth : 8 bits
Scan type : Progressive
Compression mode : Lossy
Bits/(Pixel*Frame) : 0.346
Stream size : 1.04 GiB (75%)
Writing library : XviD 73
Audio
ID : 1
Format : AC-3
Format/Info : Audio Coding 3
Commercial name : Dolby Digital
Codec ID : 2000
Duration : 1 h 14 min
Bit rate mode : Constant
Bit rate : 640 kb/s
Channel(s) : 6 channels
Channel layout : L R C LFE Ls Rs
Sampling rate : 48.0 kHz
Frame rate : 31.250 FPS (1536 SPF)
Compression mode : Lossy
Stream size : 341 MiB (24%)
Alignment : Split across interleaves
Interleave, duration : 40 ms (1.00 video frame)
Interleave, preload duratio : 500 ms
Service kind : Complete Main
Релиз от:

Release was prepared by RG Files-x

[Profile] [PM]
Display posts:    
Reply to topic

Current time is: 27-Nov 04:41

All times are UTC + 3



You cannot post new topics in this forum
You cannot reply to topics in this forum
You cannot edit your posts in this forum
You cannot delete your posts in this forum
You cannot vote in polls in this forum
You cannot attach files in this forum
You cannot download files in this forum