Новая битва экстрасенсов [1 сезон: 1-11 серия из ?] (2022) HDTV 1080p от R.G.Generalfilm

Reply to topic
 
Author Message

HardwareMining ®

Gender: Male

Longevity: 3 years 1 month

Posts: 304

Post 11-Sep-2022 15:16

[Quote]

Новая битва экстрасенсов Год выпуска: 2022
Жанр: Паранормальное шоу, документальный, мистика, экстрасенсы, сверхъестественное
Выпущено: Россия, АО «ФМП Групп» по заказу АО «ТНТ-Телесеть»
Режиссер: Олег Чаурс
Ведущий: Марат Башаров
Описание: В проекте «Битва экстрасенсов» участвуют люди, обладающими необычными способностями. Ведьмы и колдуны, эзотерики, маги, целители, гадатели и многие другие соревнуются за победу и звание лучшего экстрасенса сезона. «Битва экстрасенсов» – культовый проект и знаковое шоу в истории ТНТ. Каждый год люди, которые называют себя экстрасенсами, доказывают свои способности зрителям, проходя сложные испытания. Ведущие проекта наблюдают за участниками и чистотой прохождения заданий, которые усложняются из года в год. За время существования шоу в нём приняли участие несколько сотен людей с необычными способностями. В рамках проекта участники не только проходят испытания, но и помогают реальным людям справиться с их бедами, раскрывают загадки истории, проливают свет на резонансные события и преступления.

Качество: HDTV 1080p
Видео: MPEG-4 AVC,1920x1080 (16:9), 7050 kbps, 25 fps, 0,136 bpp
Аудио: AC3 / 2.0 / 48 kHz / 192 kbps
Продолжительность: ~01:31:20
Перевод: Не требуется
Cубтитры: Отсутствуют

Скриншоты

MediaInfo

Общее
Уникальный идентификатор : 233787347576314555647128782985856097739 (0xAFE1CE2A365B76CE8C7809CB69AD1DCB)
Полное имя : G:\GF\Bitva ekstrasensov.S23.2022.HDTV 1080p.RG GeneralFilm\Bitva ekstrasensov.s23.e01.2022.HDTV 1080p.by.HardwareMining.R.G.Generalfilm.mkv
Формат : Matroska
Версия формата : Version 4
Размер файла : 4,61 Гбайт
Продолжительность : 1 ч. 31 м.
Режим общего битрейта : Постоянный
Общий поток : 7 229 Кбит/сек
Название фильма : Bitva ekstrasensov.s23.e01.2022.HDTV 1080p.by.HardwareMining.R.G.Generalfilm.mkv
Дата кодирования : UTC 2022-09-11 10:04:16
Программа кодирования : mkvmerge v6.8.0 ('Theme for Great Cities') 64bit built on Mar 2 2014 21:34:26
Библиотека кодирования : libebml v1.3.0 + libmatroska v1.4.1
Обложка : Yes
Attachments : cover.jpg
Видео
Идентификатор : 1
Формат : AVC
Формат/Информация : Advanced Video Codec
Профиль формата : High@L4.1
Настройки формата : CABAC / 4 Ref Frames
Параметр CABAC формата : Да
Параметр RefFrames формата : 4 кадра
Идентификатор кодека : V_MPEG4/ISO/AVC
Продолжительность : 1 ч. 31 м.
Вид битрейта : Постоянный
Битрейт : 7 050 Кбит/сек
Ширина : 1 920 пикселей
Высота : 1 080 пикселей
Соотношение сторон : 16:9
Режим частоты кадров : Постоянный
Частота кадров : 25,000 кадров/сек
Стандарт вещания : PAL
Цветовое пространство : YUV
Субдискретизация насыщенности : 4:2:0
Битовая глубина : 8 бит
Тип развёртки : Прогрессивная
Бит/(Пиксели*Кадры) : 0.136
Размер потока : 4,40 Гбайт (95%)
Default : Да
Forced : Нет
Цветовой диапазон : Limited
Основные цвета : BT.709
Характеристики трансфера : BT.709
Коэффициенты матрицы : BT.709
Аудио
Идентификатор : 2
Формат : AC-3
Формат/Информация : Audio Coding 3
Коммерческое название : Dolby Digital
Идентификатор кодека : A_AC3
Продолжительность : 1 ч. 31 м.
Вид битрейта : Постоянный
Битрейт : 192 Кбит/сек
Каналы : 2 канала
Channel layout : L R
Частота : 48,0 КГц
Частота кадров : 31,250 кадров/сек (1536 SPF)
Метод сжатия : С потерями
Размер потока : 125 Мбайт (3%)
Язык : Russian
Service kind : Complete Main
Default : Да
Forced : Нет

Раздача ведётся путём добавления новых серий

Внимание! Раздача ведётся путём добавления новых серий; при каждом добавлении создаётся новый торрент.
Чтобы начать докачку новой серии, пользователям необходимо сделать следующее:
1. Остановить скачивание;
2. Удалить старый торрент у себя из клиента (старые серии удалять не надо);
3. Скачать новый торрент и запустить его у себя в клиенте вместо старого, при этом указать клиенту путь в старую папку куда и должно происходить скачивание новых серий. Ваш клиент при этом должен произвести хеширование (проверку) старой папки и будет докачивать только те серии, которых у вас ещё нет. Старые серии при этом не удаляются, а продолжают раздаваться! Eсли вы уже удалили старые серии, то предотвратить повторную закачку старых серий можно, отжав галочку в соответствующих местах при запуске нового торрента.


Last edited by HardwareMining on 2022-11-20 09:12; edited 11 times in total
[Profile] [PM]

Серый1779

Gender: Male

Longevity: 4 years

Posts: 2686

Location: Украина

Post 11-Sep-2022 19:47 (after 4 hours)

[Quote]

Снзон 1.
Название: Новая битва экстрасенсов

Скрин


[Profile] [PM]

HardwareMining ®

Gender: Male

Longevity: 3 years 1 month

Posts: 304

Post 12-Sep-2022 05:59 (after 10 hours)

[Quote]

Серый1779,
вообще то, это продолжение. 23 сезон. просто захотели и придумали название Новая битва. Нового не чего нету.
[Profile] [PM]
Display posts:    
Reply to topic

Current time is: 27-Nov 04:10

All times are UTC + 3



You cannot post new topics in this forum
You cannot reply to topics in this forum
You cannot edit your posts in this forum
You cannot delete your posts in this forum
You cannot vote in polls in this forum
You cannot attach files in this forum
You cannot download files in this forum