Эльбрус. Точка невозврата [1-5 серии из 5] (2022) WEB-DL 1080p от Files-x

Reply to topic
 
Author Message

papa1951deda ®

Gender: Male

Longevity: 4 years

Posts: 1516

Location: Казахстан

Post 26-Sep-2022 16:22

[Quote]

Эльбрус. Точка невозврата Год выхода: 2022
Жанр: Драма, документальный
Выпущено: Россия, «ТОК»
Режиссер: Кирилл Верхозин
О сериале: Вечером 23 сентября группа туристов, находящихся на склоне Эльбруса, запросила помощь МЧС из-за ухудшения погоды. В результате масштабной операции удалось спасти 14 человек, пятеро погибли. Гиды, ответственные за восхождение, предстали перед судом, им грозит до 10 лет лишения свободы. Погибшие – простые люди, чьи семьи пытаются любой ценой добиться наказания тех, кого они считают виновными в смерти близких. Создатели проекта поговорили с участниками этих событий и на основе их рассказов, данных GPS-трекеров и реальных, ранее не опубликованных фото и видео того злополучного дня, полностью реконструировали историю, в которой нашлось место семейной драме, подвигу, а также человеческой слабости, которая, возможно, и привела трагедии.

Качество: WEB-DLRip 1080p
Видео: MPEG-4 AVC, ~ 5120 Кбит/с, 1920x1080
Аудио: AC3, 6 ch, 384 Кбит/с
Продолжительность: 5 х ~ 00:39:00
Перевод: Не требуется
Субтитры: Нет

Скриншоты



MediaInfo

Общее
Уникальный идентификатор: 181891726169068818916639251043722195817 (0x88D7127C2089EB648FF73047B06BF369)
Полное имя: C:\films\ Эльбрус. Точка невозврата.2022.WEB-DL 1080p.Files-x\04. Эльбрус. Точка невозврата.2022.WEB-DL 1080p.Files-x.mkv
Формат: Matroska
Версия формата: Version 2
Размер файла: 1, 24 Гбайт
Продолжительность: 32 м. 11 с.
Общий поток: 5 502 Кбит/сек
Дата кодирования: UTC 2022-09-23 21:29:43
Программа кодирования: mkvmerge v7.8.0 ('River Man') 32bit built on Apr 3 2015 12:11:22
Библиотека кодирования: libebml v1.3.1 + libmatroska v1.4.2
Видео
Идентификатор: 1
Формат: AVC
Формат/Информация: Advanced Video Codec
Профиль формата: High@L4
Настройки формата: CABAC / 4 Ref Frames
Параметр CABAC формата: Да
Параметр RefFrames формата: 4 кадра
Идентификатор кодека: V_MPEG4/ISO/AVC
Продолжительность: 32 м. 11 с.
Битрейт: 5 120 Кбит/сек
Ширина: 1 920 пикселей
Высота: 1 080 пикселей
Соотношение сторон: 16:9
Режим частоты кадров: Постоянный
Частота кадров: 24, 000 кадра/сек
Цветовое пространство: YUV
Субдискретизация насыщенности: 4:2:0
Битовая глубина: 8 бит
Тип развёртки: Прогрессивная
Бит/(Пиксели*Кадры): 0.103
Размер потока: 1, 13 Гбайт (91%)
Библиотека кодирования: x264 core 152 r2854 e9a5903
Настройки программы: cabac=1 / ref=3 / deblock=1:0:0 / analyse=0x3:0x113 / me=hex / subme=7 / psy=1 / psy_rd=1.00:0.00 / mixed_ref=1 / me_range=16 / chroma_me=1 / trellis=1 / 8x8dct=1 / cqm=0 / deadzone=21, 11 / fast_pskip=1 / chroma_qp_offset=-2 / threads=34 / lookahead_threads=5 / sliced_threads=0 / nr=0 / decimate=1 / interlaced=0 / bluray_compat=0 / constrained_intra=0 / bframes=6 / b_pyramid=2 / b_adapt=1 / b_bias=0 / direct=1 / weightb=1 / open_gop=0 / weightp=2 / keyint=48 / keyint_min=25 / scenecut=0 / intra_refresh=0 / rc_lookahead=40 / rc=2pass / mbtree=1 / bitrate=5120 / ratetol=1.0 / qcomp=0.60 / qpmin=0 / qpmax=69 / qpstep=4 / cplxblur=20.0 / qblur=0.5 / vbv_maxrate=7680 / vbv_bufsize=20480 / nal_hrd=none / filler=0 / ip_ratio=1.40 / aq=1:1.00
Default: Да
Forced: Нет
Аудио
Идентификатор: 2
Формат: AC-3
Формат/Информация: Audio Coding 3
Коммерческое название: Dolby Digital
Идентификатор кодека: A_AC3
Продолжительность: 32 м. 11 с.
Вид битрейта: Постоянный
Битрейт: 384 Кбит/сек
Каналы: 6 каналов
Channel layout: L R C LFE Ls Rs
Частота: 48, 0 КГц
Частота кадров: 31, 250 кадров/сек (1536 SPF)
Метод сжатия: С потерями
Размер потока: 88, 4 Мбайт (7%)
Service kind: Complete Main
Default: Да
Forced: Нет
Релиз от:

Release was prepared by RG Files-x

[Profile] [PM]
Display posts:    
Reply to topic

Current time is: 27-Nov 05:20

All times are UTC + 3



You cannot post new topics in this forum
You cannot reply to topics in this forum
You cannot edit your posts in this forum
You cannot delete your posts in this forum
You cannot vote in polls in this forum
You cannot attach files in this forum
You cannot download files in this forum