Суперпитомцы / DC League of Super-Pets (2022) BDRip-AVC | Лицензия

Reply to topic
 
Author Message

HardwareMining ®

Gender: Male

Longevity: 3 years 1 month

Posts: 304

Post 30-Sep-2022 16:44

[Quote]

Суперпитомцы / DC League of Super-Pets
«Сидеть, лежать, спасать мир» Год выпуска: 2022
Жанр: мультфильм, фантастика, фэнтези, боевик, комедия, криминал, приключения, семейный
Выпущено: США | 7 Bucks Productions, A Stern Talking To, DC Entertainment, Warner Animation Group, Warner Bros., Warner Bros. Animation
Режиссеры: Джаред Штерн, Сэм Ливайн
В ролях: Дуэйн Джонсон, Кевин Харт, Кейт МакКиннон, Джон Красински, Ванесса Байер, Наташа Лионн, Диего Луна, Марк Мэрон, Киану Ривз, Томас Миддлдитч
О фильме:
Пес Крипто — лучший друг Супермена, обладающий такими же внеземными способностями, как и его хозяин. Вместе они отважно борются с преступностью в Метрополисе. Но когда Супермена и других членов Лиги справедливости похищают неизвестные злодеи, Крипто приходится подготовить новых помощников, а именно разношерстную компанию животных из приюта, которые неожиданно обрели суперсилу. Сможет ли пушистая Лига суперпитомцев спасти Супермена, а заодно и весь мир?

Качество: BDRip-AVC
Видео: AVC, 1024x426 (2,40:1), 23,976 fps, 1337 Kbit/s (0.128 bit/pixel)
Аудио: русский, AC3, 5.1, 48 kHz, 384 kbps CBR
Продолжительность: 01:45:26
Перевод: Дублированный | Лицензия
Субтитры: Русские | Forced

Скриншоты

MediaInfo

Общее
Уникальный идентификатор : 201508621400506225319109909864800294388 (0x97992617CE32E1848F0AF8B6CAF795F4)
Полное имя : G:\GF\DC.League.of.Super.Pets.2022.BDRip.AVC.Rip.by.HardwareMining.R.G.Generalfilm.mkv
Формат : Matroska
Версия формата : Version 4
Размер файла : 1,27 Гбайт
Продолжительность : 1 ч. 45 м.
Общий поток : 1 723 Кбит/сек
Название фильма : DC.League.of.Super.Pets.2022.BDRip.AVC.Rip.by.HardwareMining.R.G.Generalfilm
Дата кодирования : UTC 2022-10-03 15:31:38
Программа кодирования : mkvmerge v6.8.0 ('Theme for Great Cities') 64bit built on Mar 2 2014 21:34:26
Библиотека кодирования : libebml v1.3.0 + libmatroska v1.4.1
Обложка : Yes
Attachments : cover0.jpg
Видео
Идентификатор : 3
Формат : AVC
Формат/Информация : Advanced Video Codec
Профиль формата : High@L4.1
Настройки формата : CABAC / 9 Ref Frames
Параметр CABAC формата : Да
Параметр RefFrames формата : 9 кадров
Идентификатор кодека : V_MPEG4/ISO/AVC
Продолжительность : 1 ч. 45 м.
Битрейт : 1 337 Кбит/сек
Ширина : 1 024 пикселя
Высота : 426 пикселей
Соотношение сторон : 2,40:1
Режим частоты кадров : Постоянный
Частота кадров : 23,976 (24000/1001) кадра/сек
Цветовое пространство : YUV
Субдискретизация насыщенности : 4:2:0
Битовая глубина : 8 бит
Тип развёртки : Прогрессивная
Бит/(Пиксели*Кадры) : 0.128
Размер потока : 984 Мбайт (76%)
Библиотека кодирования : x264 core 148 r2638 7599210
Настройки программы : cabac=1 / ref=9 / deblock=1:-2:-1 / analyse=0x3:0x113 / me=umh / subme=10 / psy=1 / psy_rd=0.00:0.15 / mixed_ref=1 / me_range=32 / chroma_me=1 / trellis=2 / 8x8dct=1 / cqm=0 / deadzone=21,11 / fast_pskip=0 / chroma_qp_offset=-3 / threads=6 / lookahead_threads=1 / sliced_threads=0 / nr=0 / decimate=0 / interlaced=0 / bluray_compat=0 / constrained_intra=0 / bframes=10 / b_pyramid=2 / b_adapt=2 / b_bias=0 / direct=1 / weightb=1 / open_gop=0 / weightp=2 / keyint=240 / keyint_min=23 / scenecut=40 / intra_refresh=0 / rc_lookahead=40 / rc=2pass / mbtree=0 / bitrate=1337 / ratetol=1.0 / qcomp=0.65 / qpmin=0 / qpmax=69 / qpstep=4 / cplxblur=20.0 / qblur=0.5 / vbv_maxrate=50000 / vbv_bufsize=65500 / nal_hrd=none / filler=0 / ip_ratio=1.40 / pb_ratio=1.30 / aq=1:2.00
Язык : English
Default : Да
Forced : Нет
Аудио
Идентификатор : 1
Формат : AC-3
Формат/Информация : Audio Coding 3
Коммерческое название : Dolby Digital
Идентификатор кодека : A_AC3
Продолжительность : 1 ч. 45 м.
Вид битрейта : Постоянный
Битрейт : 384 Кбит/сек
Каналы : 6 каналов
Channel layout : L R C LFE Ls Rs
Частота : 48,0 КГц
Частота кадров : 31,250 кадров/сек (1536 SPF)
Метод сжатия : С потерями
Размер потока : 290 Мбайт (22%)
Заголовок : Dub | License
Язык : Russian
Service kind : Complete Main
Default : Да
Forced : Да
Текст
Идентификатор : 2
Формат : UTF-8
Идентификатор кодека : S_TEXT/UTF8
Идентификатор кодека/Информация : UTF-8 Plain Text
Заголовок : Forced
Язык : Russian
Default : Да
Forced : Да
Меню
00:00:00.000 : en:Chapter 01
00:09:55.553 : en:Chapter 02
00:17:24.543 : en:Chapter 03
00:27:24.518 : en:Chapter 04
00:36:40.990 : en:Chapter 05
00:46:04.470 : en:Chapter 06
00:54:03.574 : en:Chapter 07
01:03:23.466 : en:Chapter 08
01:12:20.336 : en:Chapter 09
01:22:15.264 : en:Chapter 10
01:32:04.894 : en:Chapter 11
01:38:50.591 : en:Chapter 1
Релиз от:
[Profile] [PM]

HardwareMining ®

Gender: Male

Longevity: 3 years 1 month

Posts: 304

Post 03-Oct-2022 18:37 (after 3 days)

[Quote]

Лицензия
[Profile] [PM]
Display posts:    
Reply to topic

Current time is: 27-Nov 04:31

All times are UTC + 3



You cannot post new topics in this forum
You cannot reply to topics in this forum
You cannot edit your posts in this forum
You cannot delete your posts in this forum
You cannot vote in polls in this forum
You cannot attach files in this forum
You cannot download files in this forum