Убойная сила [1 сезон: 1-4 серия из 59] (2000-2005) HDTV 1080p от R.G.Generalfilm

Reply to topic
 
Author Message

White Smoke ®

Gender: Male

Longevity: 4 years

Posts: 258

Post 03-Oct-2022 17:10

[Quote]

Убойная сила Год выпуска: 2000-2005
Жанр: Детектив, криминал, комедия
Выпущено: Россия, Студия "Момент", Урсус-фильм, Киностудия "СЛОВО"
Режиссеры: Александр Рогожкин, Виктор Бутурлин, Евгений Татарский, Виктор Сергеев, Вячеслав Сорокин, Александр Бурцев, Евгений Аксёнов, Родион Нахапетов, Сергей Снежкин, Евгений Аксёнов, Искандер Хамраев, Вячеслав Никифоров, Андрей Прошкин, Сергей Осипьян, Михаил Брашинский, Дмитрий Иосифов, Ульяна Шилкина, Андрес Пуустусмаа, Александр Карпиловский, Вадим Островский, Антон Борматов
В ролях: Сергей Селин, Константин Хабенский, Андрей Федорцов, Алексей Нилов, Александр Половцев, Михаил Трухин, Сергей Кошонин, Евгений Ганелин, Вилле Хаапасало, Николай Лавров, Сергей Мурзин, Борис Клюев, Евгений Леонов-Гладышев, Андрей Ургант, Виктор Бычков, Елена Симонова, Николай Судник, Георгий Штиль, Николай Лосев (II), Марина Макарова, Игорь Лифанов, Людмила Курепова, Виктор Костецкий, Игорь Добряков, Василий Чернышев, Артур Харитоненко, Анатолий Горин, Валентин Корнезо, Анатолий Сливников, Петр Лимин, Роман Шумилов, Герман Орлов, Станислав Садальский, Олег Иванов (III), Людмила Шевель, Александр Новиков (III), Михаил Трясоруков, Юлия Деллос, Станислав Мухин, Елена Соловьева, Николай Дик, Александр Лушин (II), Дмитрий Гоголин, Полина Бахаревская, Кирилл Лавров, Юрий Гальцев, Владимир Труханов, Эрнст Романов, Александр Солоненко
О фильме: В центре сюжета оперативные сотрудники районного отдела милиции и убойного отдела главка в Санкт-Петербурге. Главные герои сериала Игорь Плахов и Василий Рогов сотрудники милиции, их служба связана с раскрытием как бытовых преступлений, так и борьбой с организованной преступностью. Работая за копеечную зарплату и рискуя жизнью, герои исполняют свой долг...
Качество: HDTV 1080p
Видео: MPEG-4 AVC, 1920x1080 (16:9), 25.000 fps, 7 100 kb/s (0.137 bit/pixel)
Аудио: AC3, 48.0 kHz, 2 ch, 192 kb/s
Продолжительность: ~ 00:54:06
Перевод : Не требуется
Субтитры: нет

Скриншоты

MediaInfo

General
Unique ID : 177172540076404635573722513155495298413 (0x854A30A585083B29915B53CDE08C056D)
Complete name : D:\Запись ТВ\Uboinaya sila S01-06 2000-2005 HDTV 1080p R.G.Generalfilm\S01\Uboinaya sila.s01.e01.2000.HDTV 1080p.by.White Smoke.R.G.Generalfilm.mkv
Format : Matroska
Format version : Version 4
File size : 2.76 GiB
Duration : 54 min 6 s
Overall bit rate mode : Constant
Overall bit rate : 7 292 kb/s
Encoded date : UTC 2022-10-03 13:00:06
Writing application : mkvmerge v6.8.0 ('Theme for Great Cities') 64bit built on Mar 2 2014 21:34:26
Writing library : libebml v1.3.0 + libmatroska v1.4.1
Video
ID : 1
Format : AVC
Format/Info : Advanced Video Codec
Format profile : High@L4.1
Format settings : CABAC / 3 Ref Frames
Format settings, CABAC : Yes
Format settings, Reference frames : 3 frames
Codec ID : V_MPEG4/ISO/AVC
Duration : 54 min 6 s
Bit rate mode : Constant
Bit rate : 7 100 kb/s
Width : 1 920 pixels
Height : 1 080 pixels
Display aspect ratio : 16:9
Frame rate mode : Constant
Frame rate : 25.000 FPS
Standard : PAL
Color space : YUV
Chroma subsampling : 4:2:0
Bit depth : 8 bits
Scan type : Progressive
Bits/(Pixel*Frame) : 0.137
Stream size : 2.63 GiB (95%)
Default : Yes
Forced : No
Color range : Limited
Color primaries : BT.709
Transfer characteristics : BT.709
Matrix coefficients : BT.709
Audio
ID : 2
Format : AC-3
Format/Info : Audio Coding 3
Commercial name : Dolby Digital
Codec ID : A_AC3
Duration : 54 min 6 s
Bit rate mode : Constant
Bit rate : 192 kb/s
Channel(s) : 2 channels
Channel layout : L R
Sampling rate : 48.0 kHz
Frame rate : 31.250 FPS (1536 SPF)
Compression mode : Lossy
Stream size : 74.3 MiB (3%)
Title : RUS
Service kind : Complete Main
Default : Yes
Forced : No

Раздача ведётся путём добавления новых серий

Внимание! Раздача ведётся путём добавления новых серий; при каждом добавлении создаётся новый торрент.
Чтобы начать докачку новой серии, пользователям необходимо сделать следующее:
1. Остановить скачивание;
2. Удалить старый торрент у себя из клиента (старые серии удалять не надо);
3. Скачать новый торрент и запустить его у себя в клиенте вместо старого, при этом указать клиенту путь в старую папку куда и должно происходить скачивание новых серий. Ваш клиент при этом должен произвести хеширование (проверку) старой папки и будет докачивать только те серии, которых у вас ещё нет. Старые серии при этом не удаляются, а продолжают раздаваться! Eсли вы уже удалили старые серии, то предотвратить повторную закачку старых серий можно, отжав галочку в соответствующих местах при запуске нового торрента.
Огромное спасибо пользователю HardwareMining за помощь в подготовке данной раздачи Релиз от:


Last edited by White Smoke on 2022-10-10 15:49; edited 1 time in total
[Profile] [PM]

White Smoke ®

Gender: Male

Longevity: 4 years

Posts: 258

Post 03-Oct-2022 17:15 (after 4 minutes)

[Quote]

в раздачу будут добавлены все серии по мере их выхода на первом канале выход серии каждое воскресение
[Profile] [PM]
Display posts:    
Reply to topic

Current time is: 27-Nov 05:12

All times are UTC + 3



You cannot post new topics in this forum
You cannot reply to topics in this forum
You cannot edit your posts in this forum
You cannot delete your posts in this forum
You cannot vote in polls in this forum
You cannot attach files in this forum
You cannot download files in this forum