Средневековье / Jan Žižka (Medieval) (2022) WEB-DLRip | Jaskier

Reply to topic
 
Author Message

DaVinci ®

Gender: Male

Longevity: 1 month 12 days

Posts: 7

Location: Украина, Днепр

Post 15-Oct-2022 09:46

[Quote]

Средневековье / Jan Žižka (Medieval) Год выпуска: 2022
Жанр: Биография, история, военный, драма
Выпущено: Чехия
Режиссер: Петр Якл
В ролях: Бен Фостер, Софи Лоу, Майкл Кейн, Тиль Швайгер, Роланд Мёллер, Мэттью Гуд, Уильям Моусли, Карел Роден, Вернер Даен, Винценц Кифер, ...
О фильме:
Священная Римская империя погружается в кровавый хаос, пока враждующие претенденты сражаются за опустевший трон. Отважный лидер наемников по имени Ян нехотя соглашается на коварный ход в политической игре: похитить невесту могущественного вельможи, чтобы преградить последнему путь к власти. Но неожиданно для себя Ян начинает испытывать сильные чувства к своей заложнице и, чтобы освободить ее, бросает вызов целой армии, стоящей на страже порочной аристократии. Герой понимает, что теперь судьба Империи, как, впрочем, и его любви, - не в руках королей, а только в его руках. И в своей беспощадной битве Ян пойдет до конца.

Качество: WEB-DLRip
Видео: XviD, 720x320 (2.25:1), 23.976 fps,1414 kb/s, avg, 0.256 bit/pixel
Аудио: AC3, 48 kHz, 2.0, 192 kbps
Продолжительность: 02:01:16
Перевод: Профессиональный [многоголосый] Jaskier
Субтитры: Отсутствуют
Присутствует реклама

Скриншоты

MediaInfo

General
Complete name : D:\TorRent 3.5.5\Medieval.2022.P.WEB-DLRip.avi
Format : AVI
Format/Info : Audio Video Interleave
File size : 1.37 GiB
Duration : 2 h 1 min
Overall bit rate : 1 615 kb/s
Writing library : VirtualDubMod build 2550/release
Video
ID : 0
Format : MPEG-4 Visual
Format profile : Advanced Simple@L5
Format settings : BVOP2 / Custom Matrix
Format settings, BVOP : 2
Format settings, QPel : No
Format settings, GMC : No warppoints
Format settings, Matrix : Custom
Codec ID : XVID
Codec ID/Hint : XviD
Duration : 2 h 1 min
Bit rate : 1 414 kb/s
Width : 720 pixels
Height : 320 pixels
Display aspect ratio : 2.25:1
Frame rate : 23.976 (24000/1001) FPS
Color space : YUV
Chroma subsampling : 4:2:0
Bit depth : 8 bits
Scan type : Progressive
Compression mode : Lossy
Bits/(Pixel*Frame) : 0.256
Stream size : 1.20 GiB (88%)
Writing library : XviD 1.2.1 (UTC 2008-12-04)
Audio
ID : 1
Format : AC-3
Format/Info : Audio Coding 3
Commercial name : Dolby Digital
Codec ID : 2000
Duration : 2 h 1 min
Bit rate mode : Constant
Bit rate : 192 kb/s
Channel(s) : 2 channels
Channel layout : L R
Sampling rate : 48.0 kHz
Frame rate : 31.250 FPS (1536 SPF)
Compression mode : Lossy
Stream size : 167 MiB (12%)
Alignment : Split across interleaves
Interleave, duration : 42 ms (1.00 video frame)
Interleave, preload duratio : 500 ms
Service kind : Complete Main


Last edited by DaVinci on 2022-10-16 09:29; edited 3 times in total
[Profile] [PM]

HardwareMining

Gender: Male

Longevity: 3 years 1 month

Posts: 304

Post 15-Oct-2022 16:30 (after 6 hours)

[Quote]

DaVinci
как вы оформили, так нельзя оформлять. оформлять надо по простому. как другие релизёры.
Постер: (постер в раздаче обязателен, размер постера не должен превышать размеры 550х600 пикселей, минимальный размер 200х200 пикселей, оптимальный размер 350х500 пикселей)
Наличие/отсутствие сторонней рекламы?
скриншоты нужно выложить в своей раздаче в виде ПРЕВЬЮ. Рекомендовано при заливке скриншотов использование тега [thumbnails].
MediaInfo - где?
субтитры где?
Релиз от: DaVinci - ставится в том случае, если вы сами сделали рип. а так и так ясно, кто сделал данный релиз. Релиз от: (Либо прописывается название релиз группы либо помещается баннер релиз группы) Исправляйте соответственно правилам данного трекера.
По скринам, это экранка.
рейтинг надо указывать.
Правила заполнения шаблона
пример оформления
http://generalfilm.website/viewtopic.php?t=28370
или
http://generalfilm.website/viewtopic.php?t=28413
[Profile] [PM]
Display posts:    
Reply to topic

Current time is: 27-Nov 06:00

All times are UTC + 3



You cannot post new topics in this forum
You cannot reply to topics in this forum
You cannot edit your posts in this forum
You cannot delete your posts in this forum
You cannot vote in polls in this forum
You cannot attach files in this forum
You cannot download files in this forum