Острые козырьки / Peaky Blinders [1-6 сезон: 1-36 серия из 36] (2013-2022) BDRip-AVC | True Dubbing Studio | Novamedia | Red Head Sound

Reply to topic
 
Author Message

HardwareMining ®

Gender: Male

Longevity: 3 years 1 month

Posts: 304

Post 28-Oct-2022 11:16

[Quote]

Острые козырьки / Peaky Blinders«The streets are theirs» Год выпуска: 2013-2022
Жанр: драма, криминал
Выпущено: Великобритания | BBC Television Centre, Caryn Mandabach Productions, Tiger Aspect Productions
Режиссеры: Энтони Бирн, Колм МакКарти, Тим Милантс
В ролях: Киллиан Мёрфи (Thomas Shelby), Пол Андерсон (Arthur Shelby), Хелен МакКрори (Aunt Polly), Софи Рандл (Ada Shelby), Нед Деннехи (Charlie Strong), Джо Коул (John Shelby), Йен Пек (Curly), Финн Коул (Michael Gray), Гарри Киртон (Finn Shelby), Тони Питтс (Sergeant Moss), Пакки Ли (Johnny Dogs), Наташа О’Кифф (Lizzie Stark)
О фильме: Британский сериал о криминальном мире Бирмингема 20-х годов прошлого века, в котором многолюдная семья Шелби стала одной из самых жестоких и влиятельных гангстерских банд послевоенного времени. Фирменным знаком группировки, промышлявшей грабежами и азартными играми, стали зашитые в козырьки лезвия.

Качество: BDRip-AVC
Видео#1: AVC, 1024x552 (1,85:1), 25 fps, 1405 | 1 305 Kbit/s (0.099 bit/pixel) 1 - 4 сезоны
Видео#2: AVC, 1024x512 (2,000), 25 fps, 1305 Kbit/s (0.100 bit/pixel) 5 - сезон
Видео#3: AVC, 1024x512 (2,000), 25 fps, 1300 Kbit/s (0.099 bit/pixel) 6 - сезон
Аудио#1: AC3, 48.0 kHz, 2 ch, 192 kb/s, CBR | 1 - 4 сезоны | True Dubbing Studio
Аудио#2: AC3, 48.0 kHz, 2 ch, 192 kb/s, CBR | 5 сезон | Novamedia
Аудио#3: AC3, 48.0 kHz, 2 ch, 256 kb/s, CBR | 6 сезон | Red Head Sound
Продолжительность: ~ 00:58:00
Перевод#1: Профессиональный (дублированный) - True Dubbing Studio (1-4 сезоны)
Перевод#2: Профессиональный (дублированный) - Novamedia (5 сезон)
Перевод#3: Дублированный (неофициальный) - Red Head Sound (6 сезон)
Субтитры: Русские (Forced) 1 и 6 сезоны

Скриншоты с 1 - 4 сезоны

Скриншоты с 5 сезона

Скриншоты с 6 сезона

MediaInfo 1 - 4 сезоны

Общее
Уникальный идентификатор : 198386177725653562316659837464112330807 (0x953FC9BBE767EDA9BE25E9DDC998F837)
Полное имя : \\?\G:\GF\Peaky.Blinders.S01-06.2013-2022.Dub.BDRip.AVC.Rip.by.HardwareMining.R.G.Generalfilm\Peaky.Blinders.S01-S04.2013-2017.BDRip.AVC.Rip.by.HardwareMining.R.G.Generalfilm\True Dubbing Studio\Season 04 - 2017\Peaky.Blinders.s04e06.BDRip.AVC.Rip.by.HardwareMining.R.G.Generalfilm.mkv
Формат : Matroska
Версия формата : Version 4
Размер файла : 619 Мбайт
Продолжительность : 57 м. 36 с.
Общий поток : 1 502 Кбит/сек
Название фильма : Peaky.Blinders.s04e06.BDRip.AVC.Rip.by.HardwareMining.R.G.Generalfilm
Дата кодирования : UTC 2022-10-15 05:36:36
Программа кодирования : mkvmerge v6.8.0 ('Theme for Great Cities') 64bit built on Mar 2 2014 21:34:26
Библиотека кодирования : libebml v1.3.0 + libmatroska v1.4.1
Обложка : Yes
Attachments : cover1.png
Видео
Идентификатор : 1
Формат : AVC
Формат/Информация : Advanced Video Codec
Профиль формата : High@L4.1
Настройки формата : CABAC / 4 Ref Frames
Параметр CABAC формата : Да
Параметр RefFrames формата : 4 кадра
Идентификатор кодека : V_MPEG4/ISO/AVC
Продолжительность : 57 м. 36 с.
Битрейт : 1 305 Кбит/сек
Ширина : 1 024 пикселя
Высота : 552 пикселя
Соотношение сторон : 1,85:1
Режим частоты кадров : Постоянный
Частота кадров : 25,000 кадров/сек
Цветовое пространство : YUV
Субдискретизация насыщенности : 4:2:0
Битовая глубина : 8 бит
Тип развёртки : Прогрессивная
Бит/(Пиксели*Кадры) : 0.092
Размер потока : 527 Мбайт (85%)
Библиотека кодирования : x264 core 130 r2273 b3065e6
Настройки программы : cabac=1 / ref=4 / deblock=1:-2:-1 / analyse=0x3:0x133 / me=umh / subme=10 / psy=1 / psy_rd=1.00:0.08 / mixed_ref=1 / me_range=32 / chroma_me=1 / trellis=2 / 8x8dct=1 / cqm=0 / deadzone=21,11 / fast_pskip=0 / chroma_qp_offset=-3 / threads=6 / lookahead_threads=1 / sliced_threads=0 / nr=0 / decimate=1 / interlaced=0 / bluray_compat=0 / constrained_intra=0 / bframes=10 / b_pyramid=2 / b_adapt=2 / b_bias=0 / direct=3 / weightb=1 / open_gop=0 / weightp=2 / keyint=250 / keyint_min=25 / scenecut=40 / intra_refresh=0 / rc=2pass / mbtree=0 / bitrate=1305 / ratetol=1.0 / qcomp=0.60 / qpmin=0 / qpmax=69 / qpstep=4 / cplxblur=20.0 / qblur=0.5 / ip_ratio=1.40 / pb_ratio=1.30 / aq=2:1.00
Язык : English
Default : Да
Forced : Нет
Цветовой диапазон : Limited
Основные цвета : BT.709
Характеристики трансфера : BT.709
Коэффициенты матрицы : BT.709
Аудио
Идентификатор : 2
Формат : AC-3
Формат/Информация : Audio Coding 3
Коммерческое название : Dolby Digital
Идентификатор кодека : A_AC3
Продолжительность : 57 м. 36 с.
Вид битрейта : Постоянный
Битрейт : 192 Кбит/сек
Каналы : 2 канала
Channel layout : L R
Частота : 48,0 КГц
Частота кадров : 31,250 кадров/сек (1536 SPF)
Метод сжатия : С потерями
Размер потока : 79,1 Мбайт (13%)
Заголовок : Dub | True Dubbing Studio
Язык : Russian
Service kind : Complete Main
Default : Да
Forced : Нет
Меню
00:00:00.000 : en:Chapter 1
00:10:02.760 : en:Chapter 2
00:19:59.400 : en:Chapter 3
00:29:26.280 : en:Chapter 4
00:39:19.040 : en:Chapter 5
00:47:55.480 : en:Chapter 6

MediaInfo 5 сезон

Общее
Уникальный идентификатор : 243637629418242740101076205248998702207 (0xB74AE68E386D95DEB8D451D3FF8A7C7F)
Полное имя : G:\GF\Peaky.Blinders.S01-06.2013-2022.Dub.BDRip.AVC.Rip.by.HardwareMining.R.G.Generalfilm\Peaky.Blinders.S05.2019.BDRip.AVC.Rip.by.HardwareMining.R.G.Generalfilm\Novamedia\Peaky.Blinders.s05e06.BDRip.AVC.Rip.by.HardwareMining.R.G.Generalfilm.mkv
Формат : Matroska
Версия формата : Version 4
Размер файла : 704 Мбайт
Продолжительность : 1 ч. 5 м.
Общий поток : 1 501 Кбит/сек
Название фильма : Peaky.Blinders.s05e06.BDRip.AVC.Rip.by.HardwareMining.R.G.Generalfilm
Дата кодирования : UTC 2022-10-17 06:19:51
Программа кодирования : mkvmerge v6.8.0 ('Theme for Great Cities') 64bit built on Mar 2 2014 21:34:26
Библиотека кодирования : libebml v1.3.0 + libmatroska v1.4.1
Обложка : Yes
Attachments : cover1.png
Видео
Идентификатор : 1
Формат : AVC
Формат/Информация : Advanced Video Codec
Профиль формата : High@L4.1
Настройки формата : CABAC / 4 Ref Frames
Параметр CABAC формата : Да
Параметр RefFrames формата : 4 кадра
Идентификатор кодека : V_MPEG4/ISO/AVC
Продолжительность : 1 ч. 5 м.
Битрейт : 1 305 Кбит/сек
Ширина : 1 024 пикселя
Высота : 512 пикселей
Соотношение сторон : 2,000
Режим частоты кадров : Постоянный
Частота кадров : 25,000 кадров/сек
Цветовое пространство : YUV
Субдискретизация насыщенности : 4:2:0
Битовая глубина : 8 бит
Тип развёртки : Прогрессивная
Бит/(Пиксели*Кадры) : 0.100
Размер потока : 600 Мбайт (85%)
Библиотека кодирования : x264 core 130 r2273 b3065e6
Настройки программы : cabac=1 / ref=4 / deblock=1:-2:-1 / analyse=0x3:0x133 / me=umh / subme=10 / psy=1 / psy_rd=1.00:0.08 / mixed_ref=1 / me_range=32 / chroma_me=1 / trellis=2 / 8x8dct=1 / cqm=0 / deadzone=21,11 / fast_pskip=0 / chroma_qp_offset=-3 / threads=6 / lookahead_threads=1 / sliced_threads=0 / nr=0 / decimate=1 / interlaced=0 / bluray_compat=0 / constrained_intra=0 / bframes=10 / b_pyramid=2 / b_adapt=2 / b_bias=0 / direct=3 / weightb=1 / open_gop=0 / weightp=2 / keyint=250 / keyint_min=25 / scenecut=40 / intra_refresh=0 / rc=2pass / mbtree=0 / bitrate=1305 / ratetol=1.0 / qcomp=0.60 / qpmin=0 / qpmax=69 / qpstep=4 / cplxblur=20.0 / qblur=0.5 / ip_ratio=1.40 / pb_ratio=1.30 / aq=2:1.00
Язык : English
Default : Да
Forced : Нет
Цветовой диапазон : Limited
Основные цвета : BT.709
Характеристики трансфера : BT.709
Коэффициенты матрицы : BT.709
Аудио
Идентификатор : 2
Формат : AC-3
Формат/Информация : Audio Coding 3
Коммерческое название : Dolby Digital
Идентификатор кодека : A_AC3
Продолжительность : 1 ч. 5 м.
Вид битрейта : Постоянный
Битрейт : 192 Кбит/сек
Каналы : 2 канала
Channel layout : L R
Частота : 48,0 КГц
Частота кадров : 31,250 кадров/сек (1536 SPF)
Метод сжатия : С потерями
Размер потока : 90,1 Мбайт (13%)
Заголовок : Dub | Novamedia
Язык : Russian
Service kind : Complete Main
Default : Да
Forced : Нет

MediaInfo 6 сезон

Общее
Уникальный идентификатор : 224341936391154675661576897812483754289 (0xA8C6AF705437B2099918F2DF67DF4931)
Полное имя : G:\GF\Peaky.Blinders.S01-06.2013-2022.Dub.BDRip.AVC.Rip.by.HardwareMining.R.G.Generalfilm\Peaky.Blinders.S06.2022.BDRip.AVC.Rip.by.HardwareMining.R.G.Generalfilm\Red Head Sound\Peaky.Blinders.s06e06.BDRip.AVC.Rip.by.HardwareMining.R.G.Generalfilm.mkv
Формат : Matroska
Версия формата : Version 4
Размер файла : 905 Мбайт
Продолжительность : 1 ч. 21 м.
Общий поток : 1 557 Кбит/сек
Название фильма : Peaky.Blinders.s06e06.BDRip.AVC.Rip.by.HardwareMining.R.G.Generalfilm
Дата кодирования : UTC 2022-10-22 07:26:13
Программа кодирования : mkvmerge v6.8.0 ('Theme for Great Cities') 64bit built on Mar 2 2014 21:34:26
Библиотека кодирования : libebml v1.3.0 + libmatroska v1.4.1
Обложка : Yes
Attachments : cover1.png
Видео
Идентификатор : 1
Формат : AVC
Формат/Информация : Advanced Video Codec
Профиль формата : High@L4.1
Настройки формата : CABAC / 4 Ref Frames
Параметр CABAC формата : Да
Параметр RefFrames формата : 4 кадра
Идентификатор кодека : V_MPEG4/ISO/AVC
Продолжительность : 1 ч. 21 м.
Битрейт : 1 300 Кбит/сек
Ширина : 1 024 пикселя
Высота : 512 пикселей
Соотношение сторон : 2,000
Режим частоты кадров : Постоянный
Частота кадров : 25,000 кадров/сек
Цветовое пространство : YUV
Субдискретизация насыщенности : 4:2:0
Битовая глубина : 8 бит
Тип развёртки : Прогрессивная
Бит/(Пиксели*Кадры) : 0.099
Размер потока : 738 Мбайт (82%)
Библиотека кодирования : x264 core 130 r2273 b3065e6
Настройки программы : cabac=1 / ref=4 / deblock=1:-2:-1 / analyse=0x3:0x133 / me=umh / subme=10 / psy=1 / psy_rd=1.00:0.08 / mixed_ref=1 / me_range=32 / chroma_me=1 / trellis=2 / 8x8dct=1 / cqm=0 / deadzone=21,11 / fast_pskip=0 / chroma_qp_offset=-3 / threads=6 / lookahead_threads=1 / sliced_threads=0 / nr=0 / decimate=1 / interlaced=0 / bluray_compat=0 / constrained_intra=0 / bframes=10 / b_pyramid=2 / b_adapt=2 / b_bias=0 / direct=3 / weightb=1 / open_gop=0 / weightp=2 / keyint=250 / keyint_min=25 / scenecut=40 / intra_refresh=0 / rc=2pass / mbtree=0 / bitrate=1300 / ratetol=1.0 / qcomp=0.60 / qpmin=0 / qpmax=69 / qpstep=4 / cplxblur=20.0 / qblur=0.5 / ip_ratio=1.40 / pb_ratio=1.30 / aq=2:1.00
Язык : English
Default : Да
Forced : Нет
Цветовой диапазон : Limited
Основные цвета : BT.709
Характеристики трансфера : BT.709
Коэффициенты матрицы : BT.709
Аудио
Идентификатор : 2
Формат : AC-3
Формат/Информация : Audio Coding 3
Коммерческое название : Dolby Digital
Идентификатор кодека : A_AC3
Продолжительность : 1 ч. 21 м.
Вид битрейта : Постоянный
Битрейт : 256 Кбит/сек
Каналы : 2 канала
Channel layout : L R
Частота : 48,0 КГц
Частота кадров : 31,250 кадров/сек (1536 SPF)
Метод сжатия : С потерями
Размер потока : 149 Мбайт (16%)
Заголовок : Dub | Red Head Sound
Язык : Russian
Service kind : Complete Main
Default : Да
Forced : Нет
Текст
Идентификатор : 3
Формат : UTF-8
Идентификатор кодека : S_TEXT/UTF8
Идентификатор кодека/Информация : UTF-8 Plain Text
Заголовок : Forc
Язык : Russian
Default : Да
Forced : Нет
Релиз от:
[Profile] [PM]
Display posts:    
Reply to topic

Current time is: 27-Nov 05:50

All times are UTC + 3



You cannot post new topics in this forum
You cannot reply to topics in this forum
You cannot edit your posts in this forum
You cannot delete your posts in this forum
You cannot vote in polls in this forum
You cannot attach files in this forum
You cannot download files in this forum