Ошибка памяти [1-4 серии из 4] (2022) SATRip

Reply to topic
 
Author Message

rolex9797 ®

Gender: Male

Longevity: 27 days

Posts: 1

Location: Узбекистан Ташкент

Post 30-Oct-2022 21:44

[Quote]

Ошибка памяти Год выпуска: 2022
Жанр: Детектив
Выпущено: Россия, Кинокомпания Киномир
Режиссер: Виталий Бабенко
В ролях: Анастасия Цибизова, Никита Юранов, Наталия Курдюбова, Владимир Капустин, Татьяна Яковенко, Николина Калиберда, Антон Смородин, Владимир Прудников
-О фильме: После трагедии в семье Полина решила начать новую жизнь с мужем Романом, который не знает о страшных подробностях прошлого жены. Но внезапное появление матери вновь возвращает Полину к тому, что она пыталась забыть. Полина не может простить и не готова общаться с мамой, которая убила её отца, разрушила их семью и теперь становится угрозой для семейной жизни самой Полины. Однако со временем Полина вспоминает и понимает, что всё, во что она верила, рассыпается на мелкие кусочки. Ненавистная убийца становится ангелом-хранителем, а настоящий враг прячется где-то рядом. Близким Полины и ей самой грозит смертельная опасность, и теперь Полине необходимо исправить ошибку памяти.
Качество: SATRip
Видео: XviD, ~ 1650 Кбит/с, 720x400
Аудио: MP3, 2 ch, 192 Кбит/с
Продолжительность: 4 x ~ 00:44:00
Озвучка: Не требуется [Русский]
Cубтитры: нет
Релиз от: 25Kuzmich

Скриншоты


MediaInfo

Общее
Полное имя : C:\Oshibka.pamyati.S01.XviD.SATRip.25Kuzmich\Oshibka.pamyati.s01.e03.XviD.SATRip.25Kuzmich.avi
Формат : AVI
Формат/Информация : Audio Video Interleave
Размер файла : 577 Мбайт
Продолжительность : 43 м. 36 с.
Общий поток : 1 852 Кбит/сек
Программа кодирования : VirtualDubMod 1.5.10.3 (build 2550/release)
Библиотека кодирования : VirtualDubMod build 2550/release
Видео
Идентификатор : 0
Формат : MPEG-4 Visual
Профиль формата : Advanced Simple@L5
Настройки формата : BVOP1
Параметр BVOP формата : 1
Параметр QPel формата : Нет
Параметр GMC формата : Без точки перехода
Параметр матрицы формата : Default (MPEG)
Идентификатор кодека : XVID
Идентификатор кодека/Подсказка : XviD
Продолжительность : 43 м. 36 с.
Битрейт : 1 650 Кбит/сек
Ширина : 720 пикселей
Высота : 400 пикселей
Соотношение сторон : 16:9
Частота кадров : 25,000 кадров/сек
Цветовое пространство : YUV
Субдискретизация насыщенности : 4:2:0
Битовая глубина : 8 бит
Тип развёртки : Прогрессивная
Метод сжатия : С потерями
Бит/(Пиксели*Кадры) : 0.229
Размер потока : 515 Мбайт (89%)
Библиотека кодирования : XviD 73
Аудио
Идентификатор : 1
Формат : MPEG Audio
Версия формата : Version 1
Профиль формата : Layer 3
Идентификатор кодека : 55
Идентификатор кодека/Подсказка : MP3
Продолжительность : 43 м. 36 с.
Вид битрейта : Постоянный
Битрейт : 192 Кбит/сек
Каналы : 2 канала
Частота : 48,0 КГц
Частота кадров : 41,667 кадра/сек (1152 SPF)
Метод сжатия : С потерями
Размер потока : 59,9 Мбайт (10%)
Выравнивание : Соединение по промежуткам
Продолжительность промежутка : 40 мс. (1,00 видеокадр)
Время предзагрузки промежутка : 504 мс.
Библиотека кодирования : LAME3.99r
Настройки программы : -m s -V 4 -q 2 -lowpass 18.6 -b 192
[Profile] [PM]

KRIEVS2011

Gender: Male

Longevity: 3 years 10 months

Posts: 554

Location: ☭☭☭ « Латвия - Latvija » « Рига - Riga » ☭☭☭

Post 31-Oct-2022 11:19 (after 13 hours)

[Quote]

Посмотрим !?!
Раздающему...
Большое Спасибо !!!
[Profile] [PM]
Display posts:    
Reply to topic

Current time is: 27-Nov 05:17

All times are UTC + 3



You cannot post new topics in this forum
You cannot reply to topics in this forum
You cannot edit your posts in this forum
You cannot delete your posts in this forum
You cannot vote in polls in this forum
You cannot attach files in this forum
You cannot download files in this forum