Зови меня Дрозд (2020) WEBRip 1080p от Files-х

Reply to topic
 
Author Message

bond74 ®

Gender: Male

Longevity: 4 years

Posts: 1822

Post 08-Nov-2022 22:58

[Quote]

Зови меня Дрозд
Год выпуска: 2020
Жанр: Драма, мелодрама
Выпущено: Россия, Киностудия "Каро Продакшн"
Режиссер: Павел Мирзоев
В ролях: Кирилл Кяро, Юлия Марченко, Максим Логинов, Валентина Ляпина, Максим Сапрыкин, Ася Домская, Даниил Радионов, Иван Логинов
О фильме: Подростковая история любви на фоне семейной драмы. Сюжет фильма строится на обретении главным героем, четырнадцатилетним Костей, своего голоса, своего «Я». Развод родителей наносит мальчику тяжёлую травму, хотя оба родителя любят сына и пытаются найти с ним общий язык. Они ищут контакта с Костей и в итоге найдут его, преодолев все сложности и препятствия.

Качество: WEBRip 1080p
Видео: MPEG-4 AVC, ~ 4500 Кбит/с, 1920x800, 24 кадр/с
Аудио: AC3, 2 ch, 192 Кбит/с
Продолжительность: 01:33:00
Перевод: Не требуется
Субтитры: Нет

Скриншоты




MediaInfo

Общее
Уникальный идентификатор : 221661517302103308875319900248390019583 (0xA6C2749310CB5B817FFEA4DC6F24A9FF)
Полное имя : C:\films\Zovi.menya.drozd.2020.WEBRip.1080p.Files-х.mkv
Формат : Matroska
Версия формата : Version 4
Размер файла : 3,05 Гбайт
Продолжительность : 1 ч. 33 м.
Режим общего битрейта : Переменный
Общий поток : 4 662 Кбит/сек
Название фильма : Zovi.menya.drozd.2020.WEBRip.1080p
Дата кодирования : UTC 2022-11-07 12:13:56
Программа кодирования : mkvmerge v68.0.0 ('The Curtain') 64-bit
Библиотека кодирования : libebml v1.4.2 + libmatroska v1.6.4
Attachments : poster.jpg
Видео
Идентификатор : 1
Формат : AVC
Формат/Информация : Advanced Video Codec
Профиль формата : High@L4.1
Настройки формата : CABAC / 2 Ref Frames
Параметр CABAC формата : Да
Параметр RefFrames формата : 2 кадра
Идентификатор кодека : V_MPEG4/ISO/AVC
Продолжительность : 1 ч. 33 м.
Вид битрейта : Переменный
Битрейт : 4 500 Кбит/сек
Ширина : 1 920 пикселей
Высота : 800 пикселей
Соотношение сторон : 2,40:1
Режим частоты кадров : Постоянный
Частота кадров : 24,000 кадра/сек
Цветовое пространство : YUV
Субдискретизация насыщенности : 4:2:0
Битовая глубина : 8 бит
Тип развёртки : Прогрессивная
Бит/(Пиксели*Кадры) : 0.122
Размер потока : 2,93 Гбайт (96%)
Default : Да
Forced : Нет
Цветовой диапазон : Limited
Основные цвета : BT.709
Характеристики трансфера : BT.709
Коэффициенты матрицы : BT.709
Аудио
Идентификатор : 2
Формат : AC-3
Формат/Информация : Audio Coding 3
Коммерческое название : Dolby Digital
Идентификатор кодека : A_AC3
Продолжительность : 1 ч. 33 м.
Вид битрейта : Постоянный
Битрейт : 192 Кбит/сек
Каналы : 2 канала
Channel layout : L R
Частота : 48,0 КГц
Частота кадров : 31,250 кадров/сек (1536 SPF)
Метод сжатия : С потерями
Размер потока : 129 Мбайт (4%)
Заголовок : [Original | AC-3 Audio]
Язык : Russian
Service kind : Complete Main
Default : Да
Forced : Нет
Релиз от:

Release was prepared by RG Files-x

[Profile] [PM]
Display posts:    
Reply to topic

Current time is: 27-Nov 04:26

All times are UTC + 3



You cannot post new topics in this forum
You cannot reply to topics in this forum
You cannot edit your posts in this forum
You cannot delete your posts in this forum
You cannot vote in polls in this forum
You cannot attach files in this forum
You cannot download files in this forum