Русалки [1-12 серии из 16] (2018) WEB-DLRip-AVC от Generalfilm | КПК

Reply to topic
 
Author Message

GORGIK ®

Gender: Male

Longevity: 4 years

Posts: 1036

Location: СССР

Post 09-Nov-2022 09:43

[Quote]

Русалки Год выпуска: 2018
Жанр: Мистика
Выпущено: Россия, Кинокомпания «Амедиа Продакшн», Продюсерская компания «Среда»
Режиссер: Саша Кириенко
В ролях: Иева Андреевайте, Пётр Фёдоров (младший), Михаил Горевой, Дарья Мороз, Евгения Дмитриева, Вера Воронкова, Мераб Нинидзе, Константин Воробьёв, Евгений Антропов, Марта Кесслер, Северия Янушаускайте, Анна Цуканова-Котт, Мария Шумакова, Сабина Ахмедова, Ирина Денисова (IV), Эрик Яралов, Даниил Воробьёв, Михаил Дорожкин, Анна Геллер, Екатерина Молоховская, Клим Бердинский, Сергей Сосновский, Екатерина Агеева, Пьер Бурель, Нана Муштакова, Марина Дианова, Фаридуншо Рахматуллоев, Дмитрий Чеботарёв, Георгий Пицхелаури, Артём Сучков, Нодар Джанелидзе, Дмитрий Куличков, Александр Горелов, Дмитрий Поднозов, Юлия Яблонская, Виктория Романенко, Александра Черкасова, Полина Пахомова (II), Микаэл Джанибекян, Инна Степанова, Василий Буткевич, Сергей Неудачин
О фильме: Размеренную жизнь провинциального города потрясает страшная новость: найдено тело 32-летней женщины. Есть подозрение, что погибшая - сестра следователя местного ОВД Риты Тихоновой, пропавшая 14 лет назад. Начинается расследование, в ходе которого Рита сталкивается с весьма странными обстоятельствами и понимает, что её окружение хранит страшные тайны, а родные и друзья не те, за кого себя выдают...

Качество: WEB-DLRip | КПК
Видео: MPEG-4 AVC (x264), 640x360, ~500 kbps, 25.000 fps
Аудио: AAC LC, 48.0 KHz, 2 ch, 128 Kbps
Продолжительность: 12 х ~ 00:55:00
Перевод / Озвучка: Не требуется [Русский]
Cубтитры: нет

Скриншоты


MediaInfo

Complete name : F:\КИНО\Rusalki.S01.2018.WEB-DLRip-AVC.KPK.GF\Rusalki.s01e02.2018.WEB-DLRip-AVC.KPK.GF.mp4
Format : MPEG-4
Codec ID : M4V (isom/iso2/avc1)
File size : 253 MiB
Duration : 55 min 52 s
Overall bit rate mode : Variable
Overall bit rate : 634 kb/s
Writing application : Lavf53.19.0
Video
ID : 1
Format : AVC
Format/Info : Advanced Video Codec
Format profile : High@L4.1
Format settings, CABAC : Yes
Format settings, RefFrames : 8 frames
Codec ID : avc1
Codec ID/Info : Advanced Video Coding
Duration : 55 min 52 s
Bit rate : 500 kb/s
Width : 640 pixels
Height : 360 pixels
Display aspect ratio : 16:9
Frame rate mode : Constant
Frame rate : 25.000 FPS
Color space : YUV
Chroma subsampling : 4:2:0
Bit depth : 8 bits
Scan type : Progressive
Bits/(Pixel*Frame) : 0.087
Stream size : 200 MiB (79%)
Writing library : x264 core 148 r2638 7599210
Encoding settings : cabac=1 / ref=8 / deblock=1:-1:-1 / analyse=0x3:0x133 / me=umh / subme=10 / psy=1 / psy_rd=1.00:0.00 / mixed_ref=1 / me_range=24 / chroma_me=1 / trellis=2 / 8x8dct=1 / cqm=0 / deadzone=21,11 / fast_pskip=1 / chroma_qp_offset=-2 / threads=6 / lookahead_threads=1 / sliced_threads=0 / nr=0 / decimate=1 / interlaced=0 / bluray_compat=0 / constrained_intra=0 / bframes=8 / b_pyramid=2 / b_adapt=2 / b_bias=0 / direct=3 / weightb=1 / open_gop=0 / weightp=2 / keyint=250 / keyint_min=126 / scenecut=40 / intra_refresh=0 / rc_lookahead=40 / rc=2pass / mbtree=1 / bitrate=500 / ratetol=1.0 / qcomp=0.60 / qpmin=0 / qpmax=69 / qpstep=4 / cplxblur=20.0 / qblur=0.5 / ip_ratio=1.40 / aq=1:1.00
Menus : 3
Audio
ID : 2
Format : AAC
Format/Info : Advanced Audio Codec
Format profile : LC
Codec ID : 40
Duration : 55 min 52 s
Bit rate mode : Variable
Bit rate : 128 kb/s
Channel(s) : 2 channels
Channel positions : Front: L R
Sampling rate : 48.0 kHz
Frame rate : 46.875 FPS (1024 SPF)
Compression mode : Lossy
Stream size : 51.0 MiB (20%)
Default : Yes
Alternate group : 1
Menus : 3
Релиз от:


Last edited by GORGIK on 2022-11-23 16:52; edited 2 times in total
[Profile] [PM]

GORGIK ®

Gender: Male

Longevity: 4 years

Posts: 1036

Location: СССР

Post 14-Nov-2022 09:46 (after 5 days)

[Quote]

+ 12-я серия
[Profile] [PM]
Display posts:    
Reply to topic

Current time is: 27-Nov 05:30

All times are UTC + 3



You cannot post new topics in this forum
You cannot reply to topics in this forum
You cannot edit your posts in this forum
You cannot delete your posts in this forum
You cannot vote in polls in this forum
You cannot attach files in this forum
You cannot download files in this forum