Суперстар! Возвращение [3 сезон: 1-2 выпуск из 8] (2022) WEBRip от Files-x

Reply to topic
 
Author Message

bond74 ®

Gender: Male

Longevity: 4 years

Posts: 1822

Post 14-Nov-2022 10:54

[Quote]

Суперстар! Возвращение Год выпуска: 2022
Жанр: ТВ-шоу, музыкальный, развлекательный
Выпущено: Россия, НТВ
Ведущий: Лолита Милявская, Вадим Такменев
Описание: На НТВ — новый сезон шоу «Суперстар!». Традиционно за звание «суперстара» будут бороться 10 артистов, пик популярности которых пришелся на 80–90-е и нулевые. Так, в третьем сезоне участниками проекта стали: народная артистка России Роксана Бабаян, заслуженный артист России Вячеслав Малежик, певицы Катя Лель, Алёна Иванцова и Ольга Зарубина, певцы Александр Айвазов, Рома Жуков и Сергей Чумаков, главный секс-символ российской эстрады 90-х Ирина Салтыкова и экс-участник группы «Премьер-министр» Жан Милимеров. Как и в предыдущих сезонах, каждый выпуск программы будет посвящен определенной теме: «Свой хит», «Посвящение ушедшим друзьям», «Любимые хиты» и др. Начиная со второго выпуска, проект будет покидать один участник — тот, кто набрал наименьшее количество баллов. Система оценок также останется прежней. Появятся и нововведения: члены жюри один раз за весь сезон могут спасти одного участника, но только в том случае, если решение будет единогласным. Если мнения судей разойдутся, участник покидает проект. Ведущими нового сезона «Суперстар!» традиционно будут популярная российская певица Лолита и ведущий международных музыкальных конкурсов «Ты супер!» и «Ты супер! 60+» и программы «Центральное телевидение» Вадим Такменёв. Кресла звездных членов жюри займет команда полюбившихся со второго сезона судей: популярный эстрадный певец Стас Пьеха, ведущая программы «Секрет на миллион» Лера Кудрявцева, известный музыкальный критик и ведущий ток-шоу «За гранью» на НТВ Сергей Соседов и певица Маша Распутина.
Качество: WEBRip
Видео: XviD, 1600 Кбит/с, 720x400, 25 кадр/с
Аудио: AC3, 2 ch, 192 Кбит/с
Продолжительность: 1 х ~ 02:30:00
Перевод: Не требуется
Субтитры: Нет

Скриншоты



MediaInfo

Общее
Полное имя : C:\films\Суперстар Возвращение .2022.WEB-DLRip.Files-x\01. Суперстар Возвращение .2022.WEB-DLRip.Files-x.avi
Формат : AVI
Формат/Информация : Audio Video Interleave
Размер файла : 1,86 Гбайт
Продолжительность : 2 ч. 28 м.
Общий поток : 1 801 Кбит/сек
Программа кодирования : VirtualDubMod 1.5.10.3 | www.virtualdub-fr.org || (build 2550/release)
Библиотека кодирования : VirtualDubMod build 2550/release
Видео
Идентификатор : 0
Формат : MPEG-4 Visual
Профиль формата : Advanced Simple@L5
Настройки формата : BVOP1 / Custom Matrix
Параметр BVOP формата : 1
Параметр QPel формата : Нет
Параметр GMC формата : Без точки перехода
Параметр матрицы формата : Выборочная
Идентификатор кодека : XVID
Идентификатор кодека/Подсказка : XviD
Продолжительность : 2 ч. 28 м.
Битрейт : 1 599 Кбит/сек
Ширина : 720 пикселей
Высота : 400 пикселей
Соотношение сторон : 16:9
Частота кадров : 25,000 кадров/сек
Цветовое пространство : YUV
Субдискретизация насыщенности : 4:2:0
Битовая глубина : 8 бит
Тип развёртки : Прогрессивная
Метод сжатия : С потерями
Бит/(Пиксели*Кадры) : 0.222
Размер потока : 1,66 Гбайт (89%)
Библиотека кодирования : XviD 1.2.1 (UTC 2008-12-04)
Аудио
Идентификатор : 1
Формат : AC-3
Формат/Информация : Audio Coding 3
Коммерческое название : Dolby Digital
Идентификатор кодека : 2000
Продолжительность : 2 ч. 28 м.
Вид битрейта : Постоянный
Битрейт : 192 Кбит/сек
Каналы : 2 канала
Channel layout : L R
Частота : 48,0 КГц
Частота кадров : 31,250 кадров/сек (1536 SPF)
Метод сжатия : С потерями
Размер потока : 204 Мбайт (11%)
Выравнивание : Разделение по промежуткам
Продолжительность промежутка : 40 мс. (1,00 видеокадр)
Время предзагрузки промежутка : 500 мс.
Service kind : Complete Main

Внимание! Раздача ведётся путём добавления новых серий

Раздача ведётся путём добавления новых серий, при каждом добавлении создаётся новый торрент. Чтобы начать докачку новой серии, пользователям необходимо сделать следующее:
- Остановить скачивание.
- Удалить старый торрент у себя из клиента (старые серии удалять не надо).
- Скачать новый торрент и запустить его у себя в клиенте вместо старого, при этом указать клиенту путь в старую папку куда и должно происходить скачивание новых серий.
Ваш клиент при этом должен произвести хеширование (проверку) старой папки (если не производит сам - помогите ему сделать это), и будет докачивать только те серии которых у вас ещё нет. Старые серии при этом не удаляются, а продолжают раздаваться!
Релиз от:

Release was prepared by RG Files-x

[Profile] [PM]
Display posts:    
Reply to topic

Current time is: 27-Nov 04:56

All times are UTC + 3



You cannot post new topics in this forum
You cannot reply to topics in this forum
You cannot edit your posts in this forum
You cannot delete your posts in this forum
You cannot vote in polls in this forum
You cannot attach files in this forum
You cannot download files in this forum