Голый пистолет / The Naked Gun / Трилогия / Trilogy (1988, 1991, 1994) BDRip-AVC | Видеобиз

Reply to topic
 
Author Message

HardwareMining ®

Gender: Male

Longevity: 3 years 1 month

Posts: 304

Post 20-Nov-2022 10:15

[Quote]

Голый пистолет / The Naked Gun: From the Files of Police Squad! / Голый пистолет 2½: Запах страха / The Naked Gun 2½: The Smell of Fear / Голый пистолет 33 1/3: Последний выпад / Naked Gun 33 1/3: The Final Insult - Трилогия / Trilogy

Голый пистолет / The Naked Gun: From the Files of Police Squad! - 1988

Голый пистолет / The Naked Gun: From the Files of Police Squad!
«You've read the ad, now see the movie!»
Год выпуска: 1988
Жанр: комедия, криминал
Выпущено: США
Режиссер: Дэвид Цукер
В ролях: Лесли Нильсен, Присцилла Пресли, Рикардо Монтальбан, Джордж Кеннеди, О. Дж. Симпсон, Сьюзэн Бьюбиан, Нэнси Марчанд, Рэй Бирк, Жанетт Чарльз, Эд Уильямс
О фильме:
Самый некомпетентный полицейский, лейтенант Фрэнк Дребин, должен в одиночку противостоять международному заговору, цель которого - погубить королеву Елизавету II. Ко всеобщему удивлению и радости, глупейший из глупых лейтенант Дребин разберётся со всеми врагами Её Величества так лихо, как не снилось и знаменитому агенту 007.

Качество: BDRip-AVC
Видео: AVC, 1024x576 (16:9), 23,976 fps, 2995 Kbit/s (0.212 bit/pixel)
Аудио: русский, AC3, 5.1, 48 kHz, 224 kbps CBR
Продолжительность: 01:24:59
Перевод: Многоголосый закадровый | Видеобиз
Субтитры: Отсутствуют

Скриншоты

MediaInfo

Общее
Уникальный идентификатор : 182171404463621454537451045576702670641 (0x890CEFB07D27C136967D40A50663B731)
Полное имя : G:\GF\The Naked Gun - Trilogy\The.Naked.Gun.From.the.Files.of.Police.Squad.1988.BDRip.AVC.Rip.by.HardwareMining.R.G.Generalfilm.mkv
Формат : Matroska
Версия формата : Version 4
Размер файла : 1,91 Гбайт
Продолжительность : 1 ч. 24 м.
Общий поток : 3 220 Кбит/сек
Название фильма : The.Naked.Gun.From.the.Files.of.Police.Squad.1988.BDRip.AVC.Rip.by.HardwareMining.R.G.Generalfilm
Дата кодирования : UTC 2022-11-22 15:09:03
Программа кодирования : mkvmerge v6.8.0 ('Theme for Great Cities') 64bit built on Mar 2 2014 21:34:26
Библиотека кодирования : libebml v1.3.0 + libmatroska v1.4.1
Обложка : Yes
Attachments : cover1.jpg
Видео
Идентификатор : 1
Формат : AVC
Формат/Информация : Advanced Video Codec
Профиль формата : High@L4.1
Настройки формата : CABAC / 9 Ref Frames
Параметр CABAC формата : Да
Параметр RefFrames формата : 9 кадров
Идентификатор кодека : V_MPEG4/ISO/AVC
Продолжительность : 1 ч. 24 м.
Битрейт : 2 995 Кбит/сек
Ширина : 1 024 пикселя
Высота : 576 пикселей
Соотношение сторон : 16:9
Режим частоты кадров : Постоянный
Частота кадров : 23,976 (24000/1001) кадра/сек
Цветовое пространство : YUV
Субдискретизация насыщенности : 4:2:0
Битовая глубина : 8 бит
Тип развёртки : Прогрессивная
Бит/(Пиксели*Кадры) : 0.212
Размер потока : 1,74 Гбайт (91%)
Библиотека кодирования : x264 core 148 r2638 7599210
Настройки программы : cabac=1 / ref=9 / deblock=1:-2:-1 / analyse=0x3:0x113 / me=umh / subme=10 / psy=1 / psy_rd=0.00:0.15 / mixed_ref=1 / me_range=32 / chroma_me=1 / trellis=2 / 8x8dct=1 / cqm=0 / deadzone=21,11 / fast_pskip=0 / chroma_qp_offset=-3 / threads=6 / lookahead_threads=1 / sliced_threads=0 / nr=0 / decimate=0 / interlaced=0 / bluray_compat=0 / constrained_intra=0 / bframes=10 / b_pyramid=2 / b_adapt=2 / b_bias=0 / direct=1 / weightb=1 / open_gop=0 / weightp=2 / keyint=240 / keyint_min=23 / scenecut=40 / intra_refresh=0 / rc_lookahead=40 / rc=2pass / mbtree=0 / bitrate=2995 / ratetol=1.0 / qcomp=0.65 / qpmin=0 / qpmax=69 / qpstep=4 / cplxblur=20.0 / qblur=0.5 / vbv_maxrate=50000 / vbv_bufsize=65500 / nal_hrd=none / filler=0 / ip_ratio=1.40 / pb_ratio=1.30 / aq=1:2.00
Язык : English
Default : Да
Forced : Нет
Аудио
Идентификатор : 2
Формат : AC-3
Формат/Информация : Audio Coding 3
Коммерческое название : Dolby Digital
Идентификатор кодека : A_AC3
Продолжительность : 1 ч. 24 м.
Вид битрейта : Постоянный
Битрейт : 224 Кбит/сек
Каналы : 6 каналов
Channel layout : L R C LFE Ls Rs
Частота : 48,0 КГц
Частота кадров : 31,250 кадров/сек (1536 SPF)
Метод сжатия : С потерями
Размер потока : 136 Мбайт (7%)
Заголовок : MVO | Видеобиз
Язык : Russian
Service kind : Complete Main
Default : Да
Forced : Да

Голый пистолет 2½: Запах страха / The Naked Gun 2½: The Smell of Fear - 1991

Голый пистолет 2½: Запах страха / The Naked Gun 2½: The Smell of Fear
«Фрэнк Дребин вернулся. Просто смиритесь с этим»
Год выпуска: 1991
Жанр: комедия, криминал
Выпущено: США
Режиссер: Дэвид Цукер
В ролях: Лесли Нильсен, Присцилла Пресли, Джордж Кеннеди, О. Дж. Симпсон, Робер Гуле, Ричард Гриффитс, Жаклин Брукс, Энтони Джеймс, Ллойд Бокнер, Тим О’Коннор
О фильме:
Лейтенант полиции Френк Дребин по-прежнему трудится на ниве поимки нарушителей правопорядка, параллельно ища вопросы глобального свойства - например, о том, когда ему предстоит продемонстрировать все, на что он способен. И вот наступает ответственный момент. Некий злодей плетет страшные козни и замышляет уничтожить весь мир. Но не тут-то было, храбрый полицейский как всегда начеку!

Качество: BDRip-AVC
Видео: AVC, 1024x576 (16:9), 23,976 fps, 2895 Kbit/s (0.205 bit/pixel)
Аудио: русский, AC3, 5.1, 48 kHz, 448 kbps CBR
Продолжительность: 01:25:06
Перевод: Многоголосый закадровый | Видеобиз
Субтитры: Отсутствуют

Скриншоты

MediaInfo

Общее
Уникальный идентификатор : 208944103588962641238818333284530774293 (0x9D312BAB2A1D62C481C2913D0BEDE115)
Полное имя : G:\GF\The Naked Gun - Trilogy\The.Naked.Gun.2½.The.Smell.of.Fear.1991.BDRip.AVC.Rip.by.HardwareMining.R.G.Generalfilm.mkv
Формат : Matroska
Версия формата : Version 4
Размер файла : 1,96 Гбайт
Продолжительность : 1 ч. 25 м.
Общий поток : 3 301 Кбит/сек
Название фильма : The.Naked.Gun.2½.The.Smell.of.Fear.1991.BDRip.AVC.Rip.by.HardwareMining.R.G.Generalfilm
Дата кодирования : UTC 2022-11-14 15:34:13
Программа кодирования : mkvmerge v6.8.0 ('Theme for Great Cities') 64bit built on Mar 2 2014 21:34:26
Библиотека кодирования : libebml v1.3.0 + libmatroska v1.4.1
Обложка : Yes
Attachments : cover2.jpg
Видео
Идентификатор : 1
Формат : AVC
Формат/Информация : Advanced Video Codec
Профиль формата : High@L4.1
Настройки формата : CABAC / 9 Ref Frames
Параметр CABAC формата : Да
Параметр RefFrames формата : 9 кадров
Идентификатор кодека : V_MPEG4/ISO/AVC
Продолжительность : 1 ч. 25 м.
Битрейт : 2 895 Кбит/сек
Ширина : 1 024 пикселя
Высота : 576 пикселей
Соотношение сторон : 16:9
Режим частоты кадров : Постоянный
Частота кадров : 23,976 (24000/1001) кадра/сек
Цветовое пространство : YUV
Субдискретизация насыщенности : 4:2:0
Битовая глубина : 8 бит
Тип развёртки : Прогрессивная
Бит/(Пиксели*Кадры) : 0.205
Размер потока : 1,66 Гбайт (84%)
Библиотека кодирования : x264 core 148 r2638 7599210
Настройки программы : cabac=1 / ref=9 / deblock=1:-2:-1 / analyse=0x3:0x113 / me=umh / subme=10 / psy=1 / psy_rd=0.00:0.15 / mixed_ref=1 / me_range=32 / chroma_me=1 / trellis=2 / 8x8dct=1 / cqm=0 / deadzone=21,11 / fast_pskip=0 / chroma_qp_offset=-3 / threads=6 / lookahead_threads=1 / sliced_threads=0 / nr=0 / decimate=0 / interlaced=0 / bluray_compat=0 / constrained_intra=0 / bframes=10 / b_pyramid=2 / b_adapt=2 / b_bias=0 / direct=1 / weightb=1 / open_gop=0 / weightp=2 / keyint=240 / keyint_min=23 / scenecut=40 / intra_refresh=0 / rc_lookahead=40 / rc=2pass / mbtree=0 / bitrate=2895 / ratetol=1.0 / qcomp=0.65 / qpmin=0 / qpmax=69 / qpstep=4 / cplxblur=20.0 / qblur=0.5 / vbv_maxrate=50000 / vbv_bufsize=65500 / nal_hrd=none / filler=0 / ip_ratio=1.40 / pb_ratio=1.30 / aq=1:2.00
Язык : English
Default : Да
Forced : Нет
Аудио
Идентификатор : 2
Формат : AC-3
Формат/Информация : Audio Coding 3
Коммерческое название : Dolby Digital
Идентификатор кодека : A_AC3
Продолжительность : 1 ч. 25 м.
Вид битрейта : Постоянный
Битрейт : 448 Кбит/сек
Каналы : 6 каналов
Channel layout : L R C LFE Ls Rs
Частота : 48,0 КГц
Частота кадров : 31,250 кадров/сек (1536 SPF)
Метод сжатия : С потерями
Размер потока : 273 Мбайт (14%)
Заголовок : MVO | Видеобиз
Язык : Russian
Service kind : Complete Main
Default : Да
Forced : Да

Голый пистолет 33 1/3: Последний выпад / Naked Gun 33 1/3: The Final Insult - 1994

Голый пистолет 33 1/3: Последний выпад / Naked Gun 33 1/3: The Final Insult
«The single most important filmmaking event since Naked Gun 2 1/2!»
Год выпуска: 1994
Жанр: комедия, криминал
Выпущено: США
Режиссер: Питер Сигал
В ролях: Лесли Нильсен, Присцилла Пресли, Джордж Кеннеди, О. Дж. Симпсон, Фред Уорд, Кэтлин Фримен, Анна Николь Смит, Эллен Грин, Эд Уильямс, Рэй Бирк
О фильме:
В тюрьму к известному террористу-смертнику Рокко приходит представитель арабских террористов и предлагает ему и его матери совершить крупный теракт за 5 миллионов долларов. Остановить его может только лейтенант Фрэнк Дребин, который сейчас на пенсии и занимается решением брачных проблем со своей супругой.

Качество: BDRip-AVC
Видео: AVC, 1024x576 (16:9), 23,976 fps, 2997 Kbit/s (0.212 bit/pixel)
Аудио: русский, AC3, 5.1, 48 kHz, 448 kbps CBR
Продолжительность: 01:22:36
Перевод: Многоголосый закадровый | Видеобиз
Субтитры: Отсутствуют

Скриншоты

MediaInfo

Общее
Уникальный идентификатор : 185543796117505893904089344741979112317 (0x8B966F6F6A149A778FDC6DF01676C37D)
Полное имя : G:\GF\The Naked Gun - Trilogy\Naked.Gun.33.1-3.The.Final.Insult.1994.BDRip.AVC.Rip.by.HardwareMining.R.G.Generalfilm.mkv
Формат : Matroska
Версия формата : Version 4
Размер файла : 1,98 Гбайт
Продолжительность : 1 ч. 22 м.
Общий поток : 3 434 Кбит/сек
Название фильма : Naked.Gun.33.1/3.The.Final.Insult.1994.BDRip.AVC.Rip.by.HardwareMining.R.G.Generalfilm
Дата кодирования : UTC 2022-11-15 13:33:13
Программа кодирования : mkvmerge v6.8.0 ('Theme for Great Cities') 64bit built on Mar 2 2014 21:34:26
Библиотека кодирования : libebml v1.3.0 + libmatroska v1.4.1
Обложка : Yes
Attachments : cover2.jpg
Видео
Идентификатор : 1
Формат : AVC
Формат/Информация : Advanced Video Codec
Профиль формата : High@L4.1
Настройки формата : CABAC / 9 Ref Frames
Параметр CABAC формата : Да
Параметр RefFrames формата : 9 кадров
Идентификатор кодека : V_MPEG4/ISO/AVC
Продолжительность : 1 ч. 22 м.
Битрейт : 2 997 Кбит/сек
Ширина : 1 024 пикселя
Высота : 576 пикселей
Соотношение сторон : 16:9
Режим частоты кадров : Постоянный
Частота кадров : 23,976 (24000/1001) кадра/сек
Цветовое пространство : YUV
Субдискретизация насыщенности : 4:2:0
Битовая глубина : 8 бит
Тип развёртки : Прогрессивная
Бит/(Пиксели*Кадры) : 0.212
Размер потока : 1,68 Гбайт (85%)
Библиотека кодирования : x264 core 148 r2638 7599210
Настройки программы : cabac=1 / ref=9 / deblock=1:-2:-1 / analyse=0x3:0x113 / me=umh / subme=10 / psy=1 / psy_rd=0.00:0.15 / mixed_ref=1 / me_range=32 / chroma_me=1 / trellis=2 / 8x8dct=1 / cqm=0 / deadzone=21,11 / fast_pskip=0 / chroma_qp_offset=-3 / threads=6 / lookahead_threads=1 / sliced_threads=0 / nr=0 / decimate=0 / interlaced=0 / bluray_compat=0 / constrained_intra=0 / bframes=10 / b_pyramid=2 / b_adapt=2 / b_bias=0 / direct=1 / weightb=1 / open_gop=0 / weightp=2 / keyint=240 / keyint_min=23 / scenecut=40 / intra_refresh=0 / rc_lookahead=40 / rc=2pass / mbtree=0 / bitrate=2997 / ratetol=1.0 / qcomp=0.65 / qpmin=0 / qpmax=69 / qpstep=4 / cplxblur=20.0 / qblur=0.5 / vbv_maxrate=50000 / vbv_bufsize=65500 / nal_hrd=none / filler=0 / ip_ratio=1.40 / pb_ratio=1.30 / aq=1:2.00
Язык : English
Default : Да
Forced : Нет
Аудио
Идентификатор : 2
Формат : AC-3
Формат/Информация : Audio Coding 3
Коммерческое название : Dolby Digital
Идентификатор кодека : A_AC3
Продолжительность : 1 ч. 22 м.
Вид битрейта : Постоянный
Битрейт : 448 Кбит/сек
Каналы : 6 каналов
Channel layout : L R C LFE Ls Rs
Частота : 48,0 КГц
Частота кадров : 31,250 кадров/сек (1536 SPF)
Метод сжатия : С потерями
Размер потока : 265 Мбайт (13%)
Заголовок : MVO | Видеобиз
Язык : Russian
Service kind : Complete Main
Default : Да
Forced : Да
Релиз от:


Last edited by HardwareMining on 2022-11-25 17:14; edited 3 times in total
[Profile] [PM]

HardwareMining ®

Gender: Male

Longevity: 3 years 1 month

Posts: 304

Post 21-Nov-2022 14:00 (after 1 day 3 hours)

[Quote]

модераторы или администраторы смените статус. косяк правлю. сёдня или завтра будет исправлен

[Profile] [PM]

HardwareMining ®

Gender: Male

Longevity: 3 years 1 month

Posts: 304

Post 22-Nov-2022 18:21 (after 1 day 4 hours)

[Quote]

Исправлена аудио дорожка в 1 ч.
[Profile] [PM]

HardwareMining ®

Gender: Male

Longevity: 3 years 1 month

Posts: 304

Post 25-Nov-2022 17:15 (after 2 days 22 hours)

[Quote]

Исправлена аудио дорожка во 2 и 3 ч.
[Profile] [PM]
Display posts:    
Reply to topic

Current time is: 27-Nov 05:21

All times are UTC + 3



You cannot post new topics in this forum
You cannot reply to topics in this forum
You cannot edit your posts in this forum
You cannot delete your posts in this forum
You cannot vote in polls in this forum
You cannot attach files in this forum
You cannot download files in this forum