Джокер / Joker (2012) HDTV 1080p от Generalfilm

Ответить на тему
 
Автор Сообщение

ValkiriaGF ®

Пол: Женский

Стаж: 3 месяца 5 дней

Сообщений: 18

Откуда: Северная Пальмира

Создавать темы 17-Дек-2018 21:56

[Цитировать]

Джокер / Joker
Год выпуска: 2012
Жанр: фантастика, комедия, семейный
Выпущено: Индия
Режиссер: Шириш Кандэр
В ролях: Акшай Кумар, Сонакши Синха, Шреяс Талпаде, Миниша Ламба, Алекс О’Нелл, Питобаш Трипати, Даршан Джаривала, Враджеш Хирджи, Читрангада Сингх, Винду Дара Сингх, Асрани, Анджан Шривастава
О фильме: В 1947 году, когда чертились границы Индии и Пакистана, местечку Паглапур нигде не нашлось места. После одного из боев во время передела границ, пациенты крупнейшей психиатрической лечебницы региона вырвались на свободу и поселились в Паглапуре, создав свою собственную республику. И так они существовали 60 лет! В то время как мир вокруг менялся, Паглапур оставался изолированным, без электричества, без телевидения и без здравого рассудка! И теперь, спустя десятилетия, когда все окончательно забыли об этом месте, учёный НАСА индийского происхождения и его красавица жена направляются в эту деревню. Ученый работает над сверхсекретным проектом по созданию устройств для общения с иностранцами. Так зачем он едет в деревню, колоритные обитатели которой, то воображают себя фонарными столбами, то говорят на языке, напоминающем бред, а то и вовсе считают, что Махатма Ганди всё ещё где-то рядом сражается за независимость? И, что наиболее важно, как они собираются переключить внимание всего Света на эту забытую всеми деревню?
Качество: HDTV 1080p
Видео: MKV, AVC, 1920x1080 (16:9), 6702 kbps, 25 fps, 0,129 bpp
Аудио: AC3, Ch 2.0, 48 kHz, 192 kbps
Продолжительность: 01:43:39
Перевод: Профессиональный (двухголосый закадровый)
Cубтитры: нет

Скриншоты



MediaInfo

General
Unique ID : 232397441430265036056878063455886796523 (0xAED61E80489B0128BECD9F031FC266EB)
Complete name : E:Запись с твJoker.2012.HDTV 1080p.by.Valkiria-G.F.R.G.Generalfilm.mkv
Format : Matroska
Format version : Version 4 / Version 2
File size : 5.09 GiB
Duration : 1 h 43 min
Overall bit rate mode : Constant
Overall bit rate : 7 035 kb/s
Movie name : Joker.2012.HDTV 1080p.by.Valkiria-G.F.R.G.Generalfilm.mkv
Encoded date : UTC 2018-09-29 10:02:18
Writing application : mkvmerge v6.8.0 ('Theme for Great Cities') 64bit built on Mar 2 2014 21:34:26
Writing library : libebml v1.3.0 + libmatroska v1.4.1
Cover : Yes
Attachments : cover.jpg
Video
ID : 1
Format : AVC
Format/Info : Advanced Video Codec
Format profile : High@L4.1
Format settings, CABAC : Yes
Format settings, ReFrames : 3 frames
Format settings, GOP : M=3, N=33
Codec ID : V_MPEG4/ISO/AVC
Duration : 1 h 43 min
Bit rate mode : Constant
Bit rate : 6 703 kb/s
Nominal bit rate : 7 051 kb/s
Width : 1 920 pixels
Height : 1 080 pixels
Display aspect ratio : 16:9
Frame rate mode : Constant
Frame rate : 25.000 FPS
Standard : PAL
Color space : YUV
Chroma subsampling : 4:2:0
Bit depth : 8 bits
Scan type : Progressive
Bits/(Pixel*Frame) : 0.129
Stream size : 4.85 GiB (95%)
Default : Yes
Forced : No
Color range : Limited
Color primaries : BT.709
Transfer characteristics : BT.709
Matrix coefficients : BT.709
Audio
ID : 2
Format : AC-3
Format/Info : Audio Coding 3
Mode extension : CM (complete main)
Format settings, Endianness : Big
Codec ID : A_AC3
Duration : 1 h 43 min
Bit rate mode : Constant
Bit rate : 192 kb/s
Channel(s) : 2 channels
Channel positions : Front: L R
Sampling rate : 48.0 kHz
Frame rate : 31.250 FPS (1536 spf)
Compression mode : Lossy
Stream size : 142 MiB (3%)
Default : Yes
Forced : No
Релиз от:
[Профиль] [ЛС]

runetzone

Пол: Мужской

Стаж: 1 месяц 10 дней

Сообщений: 59

Откуда: Санкт-Петербург

Создавать темы 09-Янв-2019 23:05 (спустя 23 дня)

[Цитировать]

Спасибо за раздачу!!! ay
[Профиль] [ЛС]
Показать сообщения:    
Ответить на тему

Текущее время: 17-Фев 15:20

Часовой пояс: UTC + 3



Вы не можете начинать темы
Вы не можете отвечать на сообщения
Вы не можете редактировать свои сообщения
Вы не можете удалять свои сообщения
Вы не можете голосовать в опросах
Вы не можете прикреплять файлы к сообщениям
Вы не можете скачивать файлы