Discovery. Голые и напуганные / Naked and Afraid [8 сезон: 1-5 серии из 6] (2017) HDTVRip 720p от GeneralFilm

Reply to topic
 
Author Message

Starik60 ®

Gender: Male

Longevity: 5 months 12 days

Posts: 121

Location: Москва, Россия

Post 16-Jan-2019 00:43

[Quote]

Голые и напуганные / Naked and Afraid
Год выпуска: 2017
Жанр: Документальный, реалити-шоу, экстрим
Выпущено: США, Discovery, Renegade 83
Режиссер: Мисси Хьюз, Тимми Пол
В ролях: Клинт Живоин, Эррол Джеймс Снайдер, Пума Кабра, Кайли Фурно
О фильме: Двум голым и незнакомым друг с другом мужчине и женщине приходится выживать в дикой глуши и в экстремальных погодных условиях. В этом сезоне участникам предстоит побывать в африканской саванне и в джунглях Гайаны, на мексиканском острове Кайо Венадо, во влажном тропическом лесу в Таиланде и в непроходимых джунглях Никарагуа. Каждая пара «Робинзонов» должна провести на месте высадки 21 день без одежды, продовольствия и снаряжения, но им разрешено взять с собой одну личную вещь. При этом никакой награды они не получат, ведь это испытание не за главный приз, а проверка своей физической и психологической выносливости. Подстерегающие опасности и непредсказуемость погоды заставят смельчаков действовать сообща. Сталкиваясь с голодом и жаждой, погодными катаклизмами и неизбежными проблемами, удастся ли нашим героям пройти проверку на прочность, или природа окажется сильнее человека?

Качество: HDTVRip 720p
Видео: MPEG-4 AVC, ~ 4000 Кбит/с, 1280x720
Аудио: MP2, 2 ch, 384 Кбит/с
Продолжительность: 5 x ~ 00:44:00
Перевод: Профессиональный (многоголосый, закадровый)
Cубтитры: нет

Скриншоты



MediaInfo

General
Unique ID : 39382358271914448994071164013386303325 (0x1DA0C42CBCE8FD88031185F47EF6875D)
Complete name : G:\Раздачи 2\Голые и напуганные S08 720p GeneralFilm\01 Голые и напуганные GeneralFilm.mkv
Format : Matroska
Format version : Version 2
File size : 1.34 GiB
Duration : 43 min 46 s
Overall bit rate mode : Constant
Overall bit rate : 4 389 kb/s
Writing application : Lavf54.63.104
Writing library : Lavf54.63.104
Video
ID : 1
Format : AVC
Format/Info : Advanced Video Codec
Format profile : High@L4.1
Format settings : CABAC / 3 Ref Frames
Format settings, CABAC : Yes
Format settings, ReFrames : 3 frames
Codec ID : V_MPEG4/ISO/AVC
Duration : 43 min 46 s
Bit rate mode : Constant
Bit rate : 4 000 kb/s
Width : 1 280 pixels
Height : 720 pixels
Display aspect ratio : 16:9
Frame rate mode : Constant
Frame rate : 50.000 FPS
Standard : PAL
Color space : YUV
Chroma subsampling : 4:2:0
Bit depth : 8 bits
Scan type : Progressive
Bits/(Pixel*Frame) : 0.087
Stream size : 1.20 GiB (89%)
Default : No
Forced : No
Color range : Limited
Color primaries : BT.709
Transfer characteristics : BT.709
Matrix coefficients : BT.709
Audio
ID : 2
Format : MPEG Audio
Format version : Version 1
Format profile : Layer 2
Codec ID : A_MPEG/L2
Codec ID/Hint : MP2
Duration : 43 min 46 s
Bit rate mode : Constant
Bit rate : 384 kb/s
Channel(s) : 2 channels
Sampling rate : 48.0 kHz
Compression mode : Lossy
Delay relative to video : 24 ms
Stream size : 120 MiB (9%)
Language : English
Default : Yes
Forced : No

Внимание! Раздача ведётся путём добавления новых серий!

Внимание! Раздача ведётся путём добавления новых серий; при каждом добавлении создfётся новый торрент. Чтобы начать докачку новой серии, пользователям необходимо сделать следующее: (1) остановить скачивание, (2) удалить старый торрент у себя из клиента (старые серии удалять не надо), (3) скачать новый торрент и запустить его у себя в клиенте вместо старого, при этом указать клиенту путь в старую папку куда и должно происходить скачивание новых серий.
Ваш клиент при этом должен произвести хеширование (проверку) старой папки (если не производит сам - помогите ему сделать это), и будет докачивать только те серии которых у вас ещё нет. Старые серии при этом не удаляются, а продолжают раздаваться!
Eсли вы уже удалили старые серии, то предотвратить повторную закачку старых серий можно, отжав галочку в соответсвующих местах при запуске нового торрента.
Благодарю за отличный постер ValkiriaGF
Релиз от:


Last edited by Starik60 on 2019-02-13 08:47; edited 1 time in total
[Profile] [PM]

runetzone

Gender: Male

Longevity: 3 months 17 days

Posts: 63

Location: Санкт-Петербург

Post 06-Feb-2019 13:13 (after 21 day)

[Quote]

Спасибо за раздачу!!! ay
[Profile] [PM]
Display posts:    
Reply to topic

Current time is: 24-Apr 15:02

All times are UTC + 3



You cannot post new topics in this forum
You cannot reply to topics in this forum
You cannot edit your posts in this forum
You cannot delete your posts in this forum
You cannot vote in polls in this forum
You cannot attach files in this forum
You cannot download files in this forum