Аленький цветочек (2019) HDTV 1080i

Reply to topic
 
Author Message

runetzone ®

Gender: Male

Longevity: 6 months 10 days

Posts: 64

Location: Санкт-Петербург

Post 19-Jan-2019 16:05

[Quote]

Аленький цветочек Год выпуска: 2019
Жанр: Ледовые шоу, мюзикл
Выпущено: Россия, Первый канал
Режиссер: Татьяна Навка, Алексей Сеченов
В ролях: Татьяна Навка, Петр Чернышев, Виктор Петренко, Артур Гачинский, Александр Смирнов, Юко Кавагути,
О фильме: «Аленький цветочек» - новый мюзикл на льду Татьяны Навки. Шоу создано по мотивам одноименной сказки Сергея Аксакова. Мировая премьера проекта состоится во дворце спорта «Мегаспорт» в Москве 27 декабря. В «Аленьком цветочке» принимают участие звезды фигурного катания, в числе которых пятикратный чемпион США и двукратный победитель чемпионата Четырех континентов в танцах на льду Петр Чернышев, чемпионы Европы, призеры чемпионатов мира в парном катании Юко Кавагути и Александр Смирнов, двукратный призер зимних Олимпийских игр и чемпионатов мира и Европы, олимпийский чемпион Виктор Петренко, призер чемпионатов мира и Европы Артур Гачинский и многие другие известные фигуристы. Во время ледового спектакля артисты исполнят сложнейшие номера на фоне декораций, поражающих воображение даже самого искушенного зрителя. «Аленький цветочек» - уникальный проект, соединяющий фигурное катание и музыку. Вокальные партии в шоу озвучивают лучшие голоса России, включая Филиппа Киркорова, Николая Баскова и других популярнейших современных исполнителей. «Аленький цветочек» - Шоу абсолютно нового уровня, мюзикл на льду для взрослых и детей, на котором вы увидите настоящие чудеса!
Качество: HDTV 1080i
Видео: MPEG-TS AVC, 11.7 Мбит/с, 1920x1080, 25 кадр/с
Аудио: Русский (АС3, 6 ch, 384 Кбит/с), (MP2, 2 ch, 192 Кбит/с)
Продолжительность: 01:14:00
Перевод: Не требуется
Cубтитры: нет

Скриншоты

MediaInfo

General
ID : 1 (0x1)
Complete name : J:\Аленький цветочек. Ледовые шоу 2019.01.13.ts
Format : MPEG-TS
File size : 6.71 GiB
Duration : 1 h 14 min
Overall bit rate mode : Variable
Overall bit rate : 13.0 Mb/s
Video
ID : 205 (0xCD)
Menu ID : 20105 (0x4E89)
Format : AVC
Format/Info : Advanced Video Codec
Format profile : High@L4
Format settings : CABAC / 4 Ref Frames
Format settings, CABAC : Yes
Format settings, ReFrames : 4 frames
Format settings, GOP : M=4, N=28
Codec ID : 27
Duration : 1 h 14 min
Bit rate : 11.7 Mb/s
Width : 1 920 pixels
Height : 1 080 pixels
Display aspect ratio : 16:9
Frame rate : 25.000 FPS
Standard : Component
Color space : YUV
Chroma subsampling : 4:2:0
Bit depth : 8 bits
Scan type : Interlaced
Scan type, store method : Separated fields
Scan order : Top Field First
Bits/(Pixel*Frame) : 0.227
Stream size : 6.07 GiB (91%)
Color range : Limited
Color primaries : BT.709
Transfer characteristics : BT.709
Matrix coefficients : BT.709
Audio #1
ID : 305 (0x131)
Menu ID : 20105 (0x4E89)
Format : AC-3
Format/Info : Audio Coding 3
Commercial name : Dolby Digital
Codec ID : 6
Duration : 1 h 14 min
Bit rate mode : Constant
Bit rate : 384 kb/s
Channel(s) : 6 channels
Channel layout : L R C LFE Ls Rs
Sampling rate : 48.0 kHz
Frame rate : 31.250 FPS (1536 SPF)
Bit depth : 16 bits
Compression mode : Lossy
Stream size : 203 MiB (3%)
Language : Russian
Service kind : Complete Main
Audio #2
ID : 306 (0x132)
Menu ID : 20105 (0x4E89)
Format : MPEG Audio
Format version : Version 1
Format profile : Layer 2
Codec ID : 3
Duration : 1 h 13 min
Bit rate mode : Constant
Bit rate : 192 kb/s
Channel(s) : 2 channels
Sampling rate : 48.0 kHz
Frame rate : 41.667 FPS (1152 SPF)
Compression mode : Lossy
Stream size : 102 MiB (1%)
Language : Russian
Релиз от: kuzmichm2196
[Profile] [PM]
Display posts:    
Reply to topic

Current time is: 17-Jul 15:24

All times are UTC + 3



You cannot post new topics in this forum
You cannot reply to topics in this forum
You cannot edit your posts in this forum
You cannot delete your posts in this forum
You cannot vote in polls in this forum
You cannot attach files in this forum
You cannot download files in this forum