Блокада. День 901-й (2019) HDTVRip-AVC от Files-x

Reply to topic
 
Author Message

bond74 ®

Gender: Male

Longevity: 8 months 2 days

Posts: 550

Post 28-Jan-2019 15:17

[Quote]

Блокада. День 901-й Год выпуска: 2019
Жанр: Документальный, военный, история
Выпущено: Россия, ВГТРК, Телеканал "Россия"
Режиссер: Дмитрий Васильев
О фильме: Это фильм о счастье. О том, каким для героев был первый день после блокады Ленинграда и как пришло осознание, что все ужасы позади. Люди и город возвращались к мирной жизни. Впервые после долгих голодных месяцев люди смогли досыта поесть, и чудом казался обычный хлеб, а мороженое было невероятно вкусным. Они заново строили свою жизнь – учились, влюблялись, женились, устраивали свадьбы. Выжив в страшной блокаде, смогли стать счастливыми, создали семьи. Но менялись не только люди, но и город, поэтому истории героев тесно переплетаются с историей восстановления Ленинграда. Сегодня герои фильма живут в разных странах – в России, Германии, Израиле… Но их объединяют не только воспоминания о страшной блокаде. Их объединяет счастье. Они живут полной жизнью, продолжают работать и воспитывать внуков.
Качество: HDTVRip-AVC
Видео: MPEG-4 AVC, 1600 Кбит/с, 1024x576, 25 кадр/с
Аудио: AC3, 2 ch, 192 Кбит/с
Продолжительность: 00:44:22
Перевод: Не требуется
Субтитры: нет

Скриншоты

MediaInfo

General
Unique ID : 171189394284683734032301266365837518539 (0x80C9E0C8A26A774D8ECA061984C4A6CB)
Complete name : C:\Users\user\Downloads\Video\Блокада.День.901.(2019).HDTVRip.(AVC).by.Серый1779.Files-x.mkv
Format : Matroska
File size : 569 MiB
Duration : 44mn 22s
Overall bit rate : 1 794 Kbps
Encoded date : UTC 2019-01-28 10:23:34
Writing application : mkvmerge v7.8.0 ('River Man') 32bit built on Apr 3 2015 12:11:22
Writing library : libebml v1.3.1 + libmatroska v1.4.2
Video
ID : 1
Format : AVC
Format/Info : Advanced Video Codec
Format profile : High@L4.1
Format settings, CABAC : Yes
Format settings, ReFrames : 9 frames
Codec ID : V_MPEG4/ISO/AVC
Duration : 44mn 22s
Bit rate : 1 600 Kbps
Width : 1 024 pixels
Height : 576 pixels
Display aspect ratio : 16:9
Frame rate : 25.000 fps
Color space : YUV
Chroma subsampling : 4:2:0
Bit depth : 8 bits
Scan type : Progressive
Bits/(Pixel*Frame) : 0.109
Stream size : 497 MiB (87%)
Writing library : x264 core 146 r2538 121396c
Encoding settings : cabac=1 / ref=9 / deblock=1:-2:-1 / analyse=0x3:0x133 / me=umh / subme=9 / psy=1 / psy_rd=1.00:0.15 / mixed_ref=1 / me_range=32 / chroma_me=1 / trellis=2 / 8x8dct=1 / cqm=0 / deadzone=21,11 / fast_pskip=0 / chroma_qp_offset=-3 / threads=18 / lookahead_threads=3 / sliced_threads=0 / nr=0 / decimate=1 / interlaced=0 / bluray_compat=0 / constrained_intra=0 / bframes=9 / b_pyramid=2 / b_adapt=2 / b_bias=0 / direct=1 / weightb=1 / open_gop=0 / weightp=2 / keyint=250 / keyint_min=25 / scenecut=40 / intra_refresh=0 / rc=2pass / mbtree=0 / bitrate=1600 / ratetol=1.0 / qcomp=0.60 / qpmin=0 / qpmax=69 / qpstep=4 / cplxblur=20.0 / qblur=0.5 / ip_ratio=1.40 / pb_ratio=1.30 / aq=2:1.00
Color primaries : BT.709-5, BT.1361, IEC 61966-2-4, SMPTE RP177
Transfer characteristics : BT.709-5, BT.1361
Matrix coefficients : BT.709-5, BT.1361, IEC 61966-2-4 709, SMPTE RP177
Audio
ID : 2
Format : AC-3
Format/Info : Audio Coding 3
Mode extension : CM (complete main)
Codec ID : A_AC3
Duration : 44mn 22s
Bit rate mode : Constant
Bit rate : 192 Kbps
Channel(s) : 2 channels
Channel positions : Front: L R
Sampling rate : 48.0 KHz
Bit depth : 16 bits
Compression mode : Lossy
Stream size : 60.9 MiB (11%)
Релиз от:
[Profile] [PM]
Display posts:    
Reply to topic

Current time is: 17-Jul 15:18

All times are UTC + 3



You cannot post new topics in this forum
You cannot reply to topics in this forum
You cannot edit your posts in this forum
You cannot delete your posts in this forum
You cannot vote in polls in this forum
You cannot attach files in this forum
You cannot download files in this forum