Звёздный путь: Дискавери / Star Trek: Discovery [2 сезон: 1-14 серия из 14] (2019) WEB-DLRip | LostFilm

Reply to topic
 
Author Message

kfelix ®

Gender: Male

Longevity: 6 months 25 days

Posts: 18

Post 29-Jan-2019 17:59

[Quote]

Звёздный путь: Дискавери / Star Trek: Discovery
Год выпуска: 2019
Жанр: Фантастика
Выпущено: США, CBS Television Studios, Living Dead Guy Productions, Roddenberry Entertainment
Режиссер: Акива Голдсман, Адам Кэйн, Ли Роуз
В ролях: Джейсон Айзекс, Даг Джонс, Шазад Латиф, Сонекуа Мартин-Грин, Молик Панчоли, Энтони Рэпп, Мишель Йео, Clare McConnell, Кеннет Митчелл, Дэймон Рунян
О фильме: Второй сезон сериала по вселенной "Звездного пути" продолжит историю космического корабля "Дискавери". Это судно с экипажем на борту пережило многое. Главные герои, управляющие Дискавери, настоящие авантюристы, которые оказываются в самом эпицентре экстремальных и опасных событий. Они выполняют важную миссию, стараясь сохранить мир в галактиках. Из эпизода в эпизод персонажи разрешают межрасовые конфликты, борются с пиратством, сражаются с неизвестными пришельцами, спасают целые поселения от гибели из-за разразившихся катаклизмов и так далее! Приключений хватит и на второй сезон! Покорители космоса столкнутся с загадками большего масштаба, чем решение локальных социальных проблем.
Качество: WEB-DLRip
Видео: XviD, 720x400, ~1444 kb/s, 23.976 fps
Аудио: MP3, 48.0 KHz, 2 ch, 192 kbps
Продолжительность: ~ 00:42:00 серия
Перевод: Профессиональный (многоголосый закадровый)
http://tracker.city9x.com:2710/announce
Субтитры: Русские, английские

Сэмпл:http://multi-up.com/1221957

Скриншоты

MediaInfo

Общее
Полное имя : D:\Torrentin\Star Trek Discovery (Звёздный путь Дискавери) s02\Star.Trek.Discovery.S02E01.rus.LostFilm..avi
Формат : AVI
Формат/Информация : Audio Video Interleave
Размер файла : 825 Мбайт
Продолжительность : 1 ч. 1 м.
Режим общего битрейта : Переменный
Общий поток : 1870 Кбит/сек
Программа кодирования : Nandub v1.0rc2
Библиотека кодирования : Nandub build 1853/release
Видео
Идентификатор : 0
Формат : MPEG-4 Visual
Профиль формата : Advanced Simple@L5
Параметр BVOP формата : Нет
Параметр QPel формата : Нет
Параметр GMC формата : Без точки перехода
Параметр матрицы формата : Default (MPEG)
Идентификатор кодека : XVID
Идентификатор кодека/Подсказка : XviD
Продолжительность : 1 ч. 1 м.
Битрейт : 1670 Кбит/сек
Ширина : 720 пикселей
Высота : 400 пикселей
Соотношение сторон : 16:9
Частота кадров : 24,000 кадра/сек
Цветовое пространство : YUV
Субдискретизация насыщенности : 4:2:0
Битовая глубина : 8 бит
Тип развёртки : Прогрессивная
Метод сжатия : С потерями
Бит/(Пиксели*Кадры) : 0.242
Размер потока : 737 Мбайт (89%)
Библиотека кодирования : XviD 1.2.1 (UTC 2008-12-04)
Аудио
Идентификатор : 1
Формат : MPEG Audio
Версия формата : Version 1
Профиль формата : Layer 3
Настройки формата : Joint stereo / MS Stereo
Идентификатор кодека : 55
Идентификатор кодека/Подсказка : MP3
Продолжительность : 1 ч. 1 м.
Вид битрейта : Переменный
Битрейт : 192 Кбит/сек
Каналы : 2 канала
Частота : 48,0 КГц
Частота кадров : 41,667 кадра/сек (1152 SPF)
Метод сжатия : С потерями
Размер потока : 82,6 Мбайт (10%)
Выравнивание : Соединение по промежуткам
Продолжительность промежутка : 24 мс. (0,58 видеокадр)
Время предзагрузки промежутка : 467 мс.
Библиотека кодирования : LAME3.97b
Настройки программы : -m j -V 4 -q 3 -lowpass 18.6 --abr 192

Внимание! Раздача ведётся путём добавления новых серий!

Внимание! Раздача ведётся путём добавления новых серий; при каждом добавлении создfётся новый торрент. Чтобы начать докачку новой серии, пользователям необходимо сделать следующее: (1) остановить скачивание, (2) удалить старый торрент у себя из клиента (старые серии удалять не надо), (3) скачать новый торрент и запустить его у себя в клиенте вместо старого, при этом указать клиенту путь в старую папку куда и должно происходить скачивание новых серий.
Ваш клиент при этом должен произвести хеширование (проверку) старой папки (если не производит сам - помогите ему сделать это), и будет докачивать только те серии которых у вас ещё нет. Старые серии при этом не удаляются, а продолжают раздаваться!
Eсли вы уже удалили старые серии, то предотвратить повторную закачку старых серий можно, отжав галочку в соответсвующих местах при запуске нового торрента.
Релиз от:

Comment from Серый1779


Не выполнен кроп. Черные полосы по кадру.
Статус "Временная"
[Profile] [PM]
Display posts:    
Reply to topic

Current time is: 18-Aug 21:01

All times are UTC + 3



You cannot post new topics in this forum
You cannot reply to topics in this forum
You cannot edit your posts in this forum
You cannot delete your posts in this forum
You cannot vote in polls in this forum
You cannot attach files in this forum
You cannot download files in this forum