Следствие вели... с Леонидом Каневским [430-431] (2019) WEBRip от GeneralFilm

Ответить на тему
 
Автор Сообщение

olegka7373 ®

Пол: Мужской

Стаж: 3 месяца 4 дня

Сообщений: 60

Откуда: Россия, Новокузнецк

Создавать темы 03-Фев-2019 18:09

[Цитировать]

Следствие вели... с Леонидом Каневским
Год выпуска: 2019
Жанр: Документальный, детектив, криминал, расследование, история
Выпущено: Россия, НТВ
Режиссер: Игорь Ромащенко, Борис Фёдоров
Ведущий: Леонид Каневский
О фильме: Эти уголовные дела гремели на весь Советский Союз. По ним были написаны романы и сняты художественные фильмы. Их фигуранты - миллионеры эпохи социализма, хитроумные воры, профессиональные грабители и валютчики. Они бросили вызов советскому обществу. Вызов приняли лучшие сыщики страны. В их распоряжении не было компьютеров, сотовой связи и бойцов ОМОНа. Но это не мешало вершиться правосудию. Главная цель сериала - не просто рассказать о преступлениях и злоумышленниках советского времени, а показать ушедшую эпоху так, чтобы молодые зрители смогли прочувствовать дух ушедшего времени, а зрители постарше - ностальгию по прошлому.
Качество: WEBRip
Видео: XviD, ~ 1600 Кбит/с, 720x400
Аудио: Русский (AC3, 2 ch, 192 Кбит/с)
Продолжительность: 2 x ~ 00:41:00
Перевод: Не требуется
Субтитры: нет

Скриншоты


MediaInfo

Общее
Полное имя : D:Sledstvie.veli.(2019.02.03).WEBRip.GeneralFilm.avi
Формат : AVI
Формат/Информация : Audio Video Interleave
Размер файла : 588 Мбайт
Продолжительность : 41 м. 14 с.
Общий поток : 1992 Кбит/сек
Программа кодирования : VirtualDubMod 1.5.10.3 | www.virtualdub-fr.org || (build 2550/release)
Библиотека кодирования : VirtualDubMod build 2550/release
Видео
Идентификатор : 0
Формат : MPEG-4 Visual
Профиль формата : Advanced Simple@L5
Параметр BVOP формата : 1
Параметр QPel формата : Нет
Параметр GMC формата : Без точки перехода
Параметр матрицы формата : Выборочная
Идентификатор кодека : XVID
Идентификатор кодека/Подсказка : XviD
Продолжительность : 41 м. 14 с.
Битрейт : 1791 Кбит/сек
Ширина : 720 пикселей
Высота : 400 пикселей
Соотношение сторон : 16:9
Частота кадров : 25,000 кадров/сек
Цветовое пространство : YUV
Субдискретизация насыщенности : 4:2:0
Битовая глубина : 8 бит
Тип развёртки : Прогрессивная
Метод сжатия : С потерями
Бит/(Пиксели*Кадры) : 0.249
Размер потока : 528 Мбайт (90%)
Библиотека кодирования : XviD 1.2.1 (UTC 2008-12-04)
Аудио
Идентификатор : 1
Формат : AC-3
Формат/Информация : Audio Coding 3
Расширение режима : CM (complete main)
Параметр Endianness формата : Big
Идентификатор кодека : 2000
Продолжительность : 41 м. 14 с.
Вид битрейта : Постоянный
Битрейт : 192 Кбит/сек
Каналы : 2 канала
Расположение каналов : Front: L R
Частота : 48,0 КГц
Частота кадров : 31,250 кадров/сек (1536 spf)
Битовая глубина : 16 бит
Метод сжатия : С потерями
Размер потока : 56,6 Мбайт (10%)
Выравнивание : Разделение по промежуткам
Продолжительность промежутка : 40 мс. (1,00 видеокадр)
Время предзагрузки промежутка : 500 мс.

Содержание

430. Женщина в красном (03.02.2019)
1985 год. В маленьком карельском поселке обнаруживают труп женщины, одетой во все красное. Некоторые люди видели ее незадолго до трагедии. Красавица бродила по улицам, как будто в поисках кого-то. За что ее погубили? И откуда взялась эта загадочная «дама в красном»?
431. Опасная игра (10.02.2019)
1981-й год, город Фрунзе. Дерзкое нападение потрясает всех жителей столицы советской Киргизии. Ограблены кассиры крупнейшего Политехнического института, похищена огромная по тем временам сумма — 70 тысяч рублей. Самое непостижимое — хорошо вооруженные преступники и не думали прятаться, они приехали к месту нападения на автомобиле. Но вскоре выясняется: владелец машины, главный инженер крупного завода, пропал без вести.

Внимание! Раздача ведётся путём добавления новых серий

Раздача ведётся путём добавления новых серий, при каждом добавлении создаётся новый торрент. Чтобы начать докачку новой серии, пользователям необходимо сделать следующее:
- Остановить скачивание.
- Удалить старый торрент у себя из клиента (старые серии удалять не надо).
- Скачать новый торрент и запустить его у себя в клиенте вместо старого, при этом указать клиенту путь в старую папку куда и должно происходить скачивание новых серий.
Ваш клиент при этом должен произвести хеширование (проверку) старой папки (если не производит сам - помогите ему сделать это), и будет докачивать только те серии которых у вас ещё нет. Старые серии при этом не удаляются, а продолжают раздаваться!
Если вы уже удалили старые серии, то предотвратить повторную закачку старых серий можно, отжав галочку в соответствующих местах при запуске нового торрента. По возможности, желательно не удалять старые серии как можно дольше, чтобы релизер не столько продолжал раздавать старые серии, а смог сконцентрироваться на новых.
Релиз:
[Профиль] [ЛС]
Показать сообщения:    
Ответить на тему

Текущее время: 17-Фев 15:10

Часовой пояс: UTC + 3



Вы не можете начинать темы
Вы не можете отвечать на сообщения
Вы не можете редактировать свои сообщения
Вы не можете удалять свои сообщения
Вы не можете голосовать в опросах
Вы не можете прикреплять файлы к сообщениям
Вы не можете скачивать файлы