Фронт [1-8 серия из 8] (2014) WEBRip 720p от Files-x

Ответить на тему
 
Автор Сообщение

papa1951deda ®

Пол: Мужской

Стаж: 2 месяца 26 дней

Сообщений: 188

Откуда: Казахстан

Создавать темы 04-Фев-2019 13:41

[Цитировать]

Фронт Год выпуска: 2014
Жанр: История, драма
Выпущено: Россия, Epic Media
Режиссёр: Владимир Балкашинов
В ролях: Магдалена Гурска, Павел Южаков-Харланчук, Дмитрий Лабуш, Ольга Кузьмина, Игорь Черневич, Юлия Марченко, Андрей Полищук, Юрий Ицков, Алексей Байдаков
О фильме: Вторая мировая война. Советское руководство узнаёт, что немецкий концерн «Ауэрге» ведёт разработку атомного оружия. В «Ауэрге» работает учёный-физик Катерина Штур — полька, побывавшая в немецком концлагере. Она пока не осознаёт всей опасности своих научных изысканий, панически боится гестапо и мечтает сбежать туда, где ей ничто не будет угрожать. Её мечту может исполнить Влад Вольный, завербованный советскими спецслужбами и получивший задание похитить сотрудника концерна «Ауэрге» и доставить его в Москву.
Качество: WEBRip 720p
Видео: MPEG-4 AVC, ~ 2 800 Кбит/с, 1280x720, 25 кадр/с
Аудио: AC3, 2 ch, 192 Кбит/с
Продолжительность: 7 x ~ 00:50:16
Перевод: Не требуется
Субтитры: Нет

Скриншоты


MediaInfo

General
Unique ID : 242557443444859061858407205746882517410 (0xB67ADD4676CEE2D1BCE89EF991B619A2)
Complete name : D:\моё видио\01. Фронт (2018).WEBDL.720p.Files-x.mkv
Format : Matroska
Format version : Version 2
File size : 1.05 GiB
Duration : 50mn 16s
Overall bit rate : 2 994 Kbps
Encoded date : UTC 2019-02-04 09:54:45
Writing application : mkvmerge v8.3.0 ('Over the Horizon') 32bit
Writing library : libebml v1.3.1 + libmatroska v1.4.2
Video
ID : 1
Format : AVC
Format/Info : Advanced Video Codec
Format profile : High@L3.1
Format settings, CABAC : Yes
Format settings, ReFrames : 4 frames
Codec ID : V_MPEG4/ISO/AVC
Duration : 50mn 16s
Bit rate : 2 800 Kbps
Width : 1 280 pixels
Height : 720 pixels
Display aspect ratio : 16:9
Frame rate mode : Constant
Frame rate : 25.000 fps
Color space : YUV
Chroma subsampling : 4:2:0
Bit depth : 8 bits
Scan type : Progressive
Bits/(Pixel*Frame) : 0.122
Stream size : 986 MiB (92%)
Writing library : x264 core 142 r2431+42 c69a006 tMod [8-bit@all X86_64]
Encoding settings : cabac=1 / ref=1 / deblock=1:0:0 / analyse=0x3:0x3 / me=dia / subme=1 / psy=1 / fade_compensate=0.00 / psy_rd=1.00:0.00 / mixed_ref=0 / me_range=16 / chroma_me=1 / trellis=0 / 8x8dct=1 / cqm=0 / deadzone=21,11 / fast_pskip=1 / chroma_qp_offset=0 / threads=24 / lookahead_threads=4 / sliced_threads=0 / nr=0 / decimate=1 / interlaced=0 / bluray_compat=0 / constrained_intra=0 / fgo=0 / bframes=3 / b_pyramid=2 / b_adapt=1 / b_bias=0 / direct=1 / weightb=1 / open_gop=0 / weightp=1 / keyint=250 / keyint_min=25 / scenecut=40 / intra_refresh=0 / rc=2pass / mbtree=0 / bitrate=2800 / ratetol=1.0 / qcomp=0.60 / qpmin=0:0:0 / qpmax=69:69:69 / qpstep=4 / cplxblur=20.0 / qblur=0.5 / ip_ratio=1.40 / pb_ratio=1.30 / aq=1:1.00 / aq-sensitivity=10.00 / aq-factor=1.00:1.00:1.00 / aq2=0 / aq3=0
Default : Yes
Forced : No
Audio
ID : 2
Format : AC-3
Format/Info : Audio Coding 3
Mode extension : CM (complete main)
Format settings, Endianness : Big
Codec ID : A_AC3
Duration : 50mn 16s
Bit rate mode : Constant
Bit rate : 192 Kbps
Channel(s) : 2 channels
Channel positions : Front: L R
Sampling rate : 44.1 KHz
Bit depth : 16 bits
Compression mode : Lossy
Stream size : 69.0 MiB (6%)
Default : Yes
Forced : No
Релиз от:

Релиз подготовлен R.G.Files-x



Последний раз редактировалось: papa1951deda (2019-02-14 13:53), всего редактировалось 7 раз(а)
[Профиль] [ЛС]

mjjhec

Пол: Мужской

Стаж: 3 месяца 1 день

Сообщений: 98

Откуда: СССР

Создавать темы 04-Фев-2019 20:49 (спустя 7 часов)

[Цитировать]

Хоть бы посмотрели на трекере какой год в этом сериале указывают.
[Профиль] [ЛС]

papa1951deda ®

Пол: Мужской

Стаж: 2 месяца 26 дней

Сообщений: 188

Откуда: Казахстан

Создавать темы 14-Фев-2019 13:54 (спустя 9 дней)

[Цитировать]

1-8 серии.
[Профиль] [ЛС]
Показать сообщения:    
Ответить на тему

Текущее время: 17-Фев 15:43

Часовой пояс: UTC + 3



Вы не можете начинать темы
Вы не можете отвечать на сообщения
Вы не можете редактировать свои сообщения
Вы не можете удалять свои сообщения
Вы не можете голосовать в опросах
Вы не можете прикреплять файлы к сообщениям
Вы не можете скачивать файлы