Фронт [1-8 серии из 8] (2014) WEBRip от GeneralFilm

Ответить на тему
 
Автор Сообщение

vsobbol ®

Пол: Мужской

Стаж: 3 месяца 1 день

Сообщений: 108

Откуда: Донецк

Создавать темы 07-Фев-2019 13:02

[Цитировать]

Фронт
Год выпуска: 2014
Жанр: Драма, исторический фильм
Выпущено: Россия, «Epic Media»
Режиссер: Владимир Балкашинов
В ролях: Магдалена Гурская, Павел Южаков-Харланчук, Митя Лабуш, Ольга Кузьмина, Игорь Черневич, Юлия Марченко, Андрей Полищук, Юрий Ицков, Алексей Байдаков, Роман Агеев, Вадим Сквирский, Валерий Кухарешин, Яков Шамшин, Елизавета Нилова, Сергей Соболев, Родион Приходько, Артур Харитоненко, Сергей Калантай, Уршула Малка, Игорь Головин, Сергей Мучеников, Владимир Щербаков, Ирина Горячева, Сергей Кудрявцев, Борис Драгилёв, Алиса Миронова, Александр Солдатов (III), Антон Багров, Аркадий Волгин, Дмитрий Поднозов, Сергей Уманов, Михаил Сидаш, Егор Бакулин, Павел Харизанов, Марчин Руй, Александр Строев (III), Андрей Перович, Вячеслав Коробицин, Евгений Капитонов, Валерий Малюшин, Владимир Маслаков, Артем Бордовский, Сергей Дьячков, Михаил Касапов, Олег Жилин, Алексей Утеганов, Андрей Аверков, Игорь Лепихин, Дмитрий Гирев, Антон Пулит, Валерий Смекалов, Владимир Захарьев, Сергей Малюгов, Егор Садовский, Алексей Одинг, Александр Бахаревский, Сергей Колос, Сергей Евсеев, Роман Грибков, Павел Григорьев, Кирилл Фролов, Крейг Эштон, Дмитрий Шайгарданов, Алесь Снопковский, Дмитрий Петрушков, Николай Данилов, Владимир Чернышов, Денис Пьянов, Артём Лещик, Роман Павлушев
О фильме: Вторая мировая война. Советское руководство узнает, что немецкий концерн «Ауэрге» ведет разработку атомного оружия. В «Ауэрге» работает ученый-физик Катерина Штур - полька, побывавшая в немецком концлагере. Она пока не осознает всей опасности своих научных изысканий, панически боится гестапо и мечтает сбежать туда, где ей ничто не будет угрожать. Ее мечту может исполнить Влад Вольный, завербованный советскими спецслужбами и получивший задание похитить сотрудника концерна «Ауэрге» и доставить его в Москву...

Качество: WEBRip
Видео: XviD build 73, 720x400 (16:9), 25.000 fps, ~ 1400 Kbps (~ 0.190 bit/pixel)
Аудио: 48.0 kHz, AC3, 2/0 ch, 192 kbps
Продолжительность: 8 х ~ 00:50:00
Перевод: Не требуется
Cубтитры: нет

Скриншоты

MediaInfo

General
Complete name : D:\Razdachi\Front.2014.WEBRip.GeneralFilm\Front.e04.avi
Format : AVI
Format/Info : Audio Video Interleave
File size : 557 MiB
Duration : 47 min 58 s
Overall bit rate : 1 624 kb/s
Writing application : VirtualDubMod 1.5.10.3 | www.virtualdub-fr.org || (build 2550/release)
Writing library : VirtualDubMod build 2550/release
Video
ID : 0
Format : MPEG-4 Visual
Format profile : Advanced Simple@L5
Format settings : BVOP1 / Custom Matrix
Format settings, BVOP : 1
Format settings, QPel : No
Format settings, GMC : No warppoints
Format settings, Matrix : Custom
Codec ID : XVID
Codec ID/Hint : XviD
Duration : 47 min 58 s
Bit rate : 1 422 kb/s
Width : 720 pixels
Height : 400 pixels
Display aspect ratio : 16:9
Frame rate : 25.000 FPS
Color space : YUV
Chroma subsampling : 4:2:0
Bit depth : 8 bits
Scan type : Progressive
Compression mode : Lossy
Bits/(Pixel*Frame) : 0.197
Stream size : 488 MiB (88%)
Writing library : XviD 73
Audio
ID : 1
Format : AC-3
Format/Info : Audio Coding 3
Commercial name : Dolby Digital
Codec ID : 2000
Duration : 47 min 58 s
Bit rate mode : Constant
Bit rate : 192 kb/s
Channel(s) : 2 channels
Channel layout : L R
Sampling rate : 48.0 kHz
Frame rate : 31.250 FPS (1536 SPF)
Bit depth : 16 bits
Compression mode : Lossy
Stream size : 65.9 MiB (12%)
Alignment : Split accross interleaves
Interleave, duration : 40 ms (1.00 video frame)
Interleave, preload duratio : 500 ms
Service kind : Complete Main
Релиз от:
[Профиль] [ЛС]

lkas1010

Пол: Мужской

Стаж: 2 месяца 21 день

Сообщений: 6

Создавать темы 14-Фев-2019 14:27 (спустя 7 дней)

[Цитировать]

Спасибо за раздачу !!!
[Профиль] [ЛС]
Показать сообщения:    
Ответить на тему

Текущее время: 17-Фев 14:21

Часовой пояс: UTC + 3



Вы не можете начинать темы
Вы не можете отвечать на сообщения
Вы не можете редактировать свои сообщения
Вы не можете удалять свои сообщения
Вы не можете голосовать в опросах
Вы не можете прикреплять файлы к сообщениям
Вы не можете скачивать файлы