Парадокс Кловерфилда (Частица Бога) / The Cloverfield Paradox (2018) BDRip 1080p

Reply to topic
 
Author Message

Monk ®

Gender: Male

Longevity: 9 months 4 days

Posts: 7868

Location: Казань

Post 11-Feb-2019 14:25

[Quote]

Парадокс Кловерфилда (Частица Бога) / The Cloverfield Paradox Год выпуска: 2018
Жанр: Ужасы, фантастика, триллер, детектив
Выпущено: США, Bad Robot, Paramount Pictures
Режиссер: Джулиус Она
В ролях: Гугу Мбата-Роу, Дэвид Ойелоуо, Даниэль Брюль, Крис О`Дауд, Аксель Хенни, Цзыи Чжан, Элизабет Дебики, Роджер Дейвис, Джон Ортис
О фильме: Очередная группа прибыла на орбитальную станцию, чтобы заменить старую смену и продолжать изучение планеты. Новые разработки этой общей экспедиции раскрыли теорию появления так называемых частиц бога в галактике и приблизили человечество к разгадке появления жизни именно на планете Земля. Созданная астронавтами станция, позволяющая ускорять частицы имела сложную структуру и показывала, как все развивалось. Однако стоило в этом сложном механизме допустить малейшую ошибку, произошедшая авария приводит к глобальной катастрофе.
Качество: BDRip 1080p
Видео: MPEG-4 AVC, 13000 Kбит/с, 1920х800, 23.976 Кадр/с
Аудио: Русский (AC3, 6 ch, 384 Кбит/с), (AC3, 6 ch, 448 Кбит/с), английский (AC3, 6 ch, 640 Кбит/с)
Продолжительность: 01:42:26
Перевод: Профессиональный многоголосый [NewStudio / Jaskier / BaibaKo]
Субтитры: Русские, английские

Скриншоты



MediaInfo

General
Unique ID : 263034185964652572460482651114159106925 (0xC5E28AA0B4D44F3D6BCE8B2BB3166B6D)
Complete name : F:\The.Cloverfield.Paradox.2018.bdriP.108Op.werecut.PROD.mkv
Format : Matroska
Format version : Version 4
File size : 10.6 GiB
Duration : 1 h 41 min
Overall bit rate mode : Variable
Overall bit rate : 14.8 Mb/s
Movie name : The Cloverfield Paradox 2018 OT werecut PROD.
Encoded date : UTC 2019-02-03 19:39:02
Writing application : mkvmerge v24.0.0 ('Beyond The Pale') 64-bit
Writing library : libebml v1.3.6 + libmatroska v1.4.9
Video
ID : 1
Format : AVC
Format/Info : Advanced Video Codec
Format profile : High@L4.1
Format settings : CABAC / 4 Ref Frames
Format settings, CABAC : Yes
Format settings, ReFrames : 4 frames
Codec ID : V_MPEG4/ISO/AVC
Duration : 1 h 41 min
Bit rate mode : Variable
Bit rate : 13.0 Mb/s
Maximum bit rate : 50.0 Mb/s
Width : 1 920 pixels
Height : 800 pixels
Display aspect ratio : 2.40:1
Frame rate mode : Constant
Frame rate : 23.976 (24000/1001) FPS
Color space : YUV
Chroma subsampling : 4:2:0
Bit depth : 8 bits
Scan type : Progressive
Bits/(Pixel*Frame) : 0.353
Stream size : 9.23 GiB (87%)
Title : Du
Writing library : x264 core 142 r2431+42 c69a006 tMod [8-bit@all X86_64]
Encoding settings : cabac=1 / ref=5 / deblock=1:-3:-3 / analyse=0x3:0x133 / me=umh / subme=11 / psy=1 / fade_compensate=0.00 / psy_rd=1.04:1.05 / mixed_ref=1 / me_range=36 / chroma_me=1 / trellis=2 / 8x8dct=1 / cqm=0 / deadzone=21,11 / fast_pskip=0 / chroma_qp_offset=-4 / threads=16 / lookahead_threads=2 / sliced_threads=0 / nr=0 / decimate=0 / interlaced=0 / bluray_compat=0 / constrained_intra=0 / fgo=0 / bframes=8 / b_pyramid=1 / b_adapt=2 / b_bias=0 / direct=3 / weightb=1 / open_gop=0 / weightp=2 / keyint=240 / keyint_min=23 / scenecut=40 / intra_refresh=0 / rc_lookahead=150 / rc=2pass / mbtree=0 / bitrate=13000 / ratetol=1.0 / qcomp=0.70 / qpmin=0:0:0 / qpmax=69:69:69 / qpstep=4 / cplxblur=20.0 / qblur=0.5 / vbv_maxrate=50000 / vbv_bufsize=62500 / nal_hrd=vbr / filler=0 / ip_ratio=1.30 / pb_ratio=1.20 / aq=2:0.80 / aq-sensitivity=10.00 / aq-factor=1.00:1.00:1.00 / aq2=0 / aq3=0
Language : English
Default : Yes
Forced : No
Color range : Limited
Color primaries : BT.709
Transfer characteristics : BT.709
Matrix coefficients : BT.709
Audio #1
ID : 2
Format : AC-3
Format/Info : Audio Coding 3
Commercial name : Dolby Digital
Codec ID : A_AC3
Duration : 1 h 41 min
Bit rate mode : Constant
Bit rate : 384 kb/s
Channel(s) : 6 channels
Channel layout : L R C LFE Ls Rs
Sampling rate : 48.0 kHz
Frame rate : 31.250 FPS (1536 SPF)
Bit depth : 16 bits
Compression mode : Lossy
Stream size : 280 MiB (3%)
Title : NewStudio
Language : Russian
Service kind : Complete Main
Default : Yes
Forced : Yes
Audio #2
ID : 3
Format : AC-3
Format/Info : Audio Coding 3
Commercial name : Dolby Digital
Codec ID : A_AC3
Duration : 1 h 41 min
Bit rate mode : Constant
Bit rate : 384 kb/s
Channel(s) : 6 channels
Channel layout : L R C LFE Ls Rs
Sampling rate : 48.0 kHz
Frame rate : 31.250 FPS (1536 SPF)
Bit depth : 16 bits
Compression mode : Lossy
Stream size : 280 MiB (3%)
Title : Jaskier
Language : Russian
Service kind : Complete Main
Default : No
Forced : No
Audio #3
ID : 4
Format : AC-3
Format/Info : Audio Coding 3
Commercial name : Dolby Digital
Codec ID : A_AC3
Duration : 1 h 41 min
Bit rate mode : Constant
Bit rate : 448 kb/s
Channel(s) : 6 channels
Channel layout : L R C LFE Ls Rs
Sampling rate : 48.0 kHz
Frame rate : 31.250 FPS (1536 SPF)
Bit depth : 16 bits
Compression mode : Lossy
Stream size : 326 MiB (3%)
Title : Baibako
Language : Russian
Service kind : Complete Main
Default : No
Forced : No
Audio #4
ID : 5
Format : AC-3
Format/Info : Audio Coding 3
Commercial name : Dolby Digital
Codec ID : A_AC3
Duration : 1 h 41 min
Bit rate mode : Constant
Bit rate : 640 kb/s
Channel(s) : 6 channels
Channel layout : L R C LFE Ls Rs
Sampling rate : 48.0 kHz
Frame rate : 31.250 FPS (1536 SPF)
Bit depth : 16 bits
Compression mode : Lossy
Stream size : 466 MiB (4%)
Language : English
Service kind : Complete Main
Default : No
Forced : No
Text #1
ID : 6
Format : UTF-8
Codec ID : S_TEXT/UTF8
Codec ID/Info : UTF-8 Plain Text
Duration : 1 h 35 min
Bit rate : 79 b/s
Count of elements : 1165
Stream size : 55.7 KiB (0%)
Language : Russian
Default : No
Forced : No
Text #2
ID : 7
Format : UTF-8
Codec ID : S_TEXT/UTF8
Codec ID/Info : UTF-8 Plain Text
Duration : 1 h 35 min
Bit rate : 47 b/s
Count of elements : 1123
Stream size : 33.5 KiB (0%)
Language : English
Default : No
Forced : No
Menu
00:00:00.000 : en:Chapter 01
00:07:12.974 : en:Chapter 02
00:11:27.561 : en:Chapter 03
00:16:43.252 : en:Chapter 04
00:22:24.426 : en:Chapter 05
00:30:01.841 : en:Chapter 06
00:34:28.649 : en:Chapter 07
00:38:57.918 : en:Chapter 08
00:45:57.004 : en:Chapter 09
00:50:46.918 : en:Chapter 10
00:55:23.778 : en:Chapter 11
01:04:00.503 : en:Chapter 12
01:10:28.432 : en:Chapter 13
01:19:29.973 : en:Chapter 14
01:25:49.978 : en:Chapter 15
01:32:21.160 : en:Chapter 16
01:36:26.113 : en:Chapter 17
01:41:48.685 : en:Chapter 18
[Profile] [PM]
Display posts:    
Reply to topic

Current time is: 18-Aug 19:57

All times are UTC + 3



You cannot post new topics in this forum
You cannot reply to topics in this forum
You cannot edit your posts in this forum
You cannot delete your posts in this forum
You cannot vote in polls in this forum
You cannot attach files in this forum
You cannot download files in this forum