Орёл и решка. Мегаполисы [21 сезон: 1-20 выпуски из 20] (2019) WEB-DL 720p от Files-x

Reply to topic
 
Author Message

bond74 ®

Gender: Male

Longevity: 8 months 2 days

Posts: 550

Post 18-Feb-2019 00:53

[Quote]

Орёл и решка. Мегаполисы Год выпуска: 2019
Жанр: Реалити-шоу, путешествия, познавательный
Выпущено: Украина, Teen Spirit Production
Ведущий: Антон Зайцев, Оля Антипова
О фильме: Команда проекта отправляется в увлекательный маршрут по самым крупным городам мира. Телезрителей ждут новые приключения, новые развлечения, новые эмоции и новые ведущие - Антон Зайцев и Оля Антипова. Чтобы показать зрителям, чем живут современные мегаполисы, ведущие тревел-шоу посетят Бангкок, Гавану, Кейптаун, Сеул, Джакарту, Париж, Амстердам, Лос-Анджелес, Сан-Франциско и другие города. В каждом мегаполисе ведущих ждут незабываемые приключения и неожиданные эксперименты. Начнется путешествие с китайского города Макао.

Качество: WEB-DL 720p
Видео: MPEG-4 AVC, ~ 1975 Кбит/с, 1280x720 , 25 кадр/с
Аудио: AC3, 2 ch, 192 Кбит/с
Продолжительность: 20 х ~ 00:48:00
Перевод: Не требуется
Субтитры: нет

Скриншоты

MediaInfo

General
Unique ID : 190226560147866497222339453274233045190 (0x8F1C4D86F71792699D0483D88BD900C6)
Complete name : C:\00\6354\Орел и решка. Мегаполисы (2019) 720\03.Орел и Решка. Мегаполисы- Бангкок (эфир от 17.02.2019) .WEB-DL 720p.Files-x.mkv
Format : Matroska
File size : 794 MiB
Duration : 50mn 12s
Overall bit rate : 2 211 Kbps
Encoded date : UTC 2019-02-17 13:45:20
Writing application : mkvmerge v7.8.0 ('River Man') 32bit built on Apr 3 2015 12:11:22
Writing library : libebml v1.3.1 + libmatroska v1.4.2
Video
ID : 1
Format : AVC
Format/Info : Advanced Video Codec
Format profile : Main@L3.1
Format settings, CABAC : Yes
Format settings, ReFrames : 3 frames
Codec ID : V_MPEG4/ISO/AVC
Duration : 50mn 12s
Bit rate : 1 975 Kbps
Width : 1 280 pixels
Height : 720 pixels
Display aspect ratio : 16:9
Frame rate mode : Variable
Frame rate : 25.000 fps
Color space : YUV
Chroma subsampling : 4:2:0
Bit depth : 8 bits
Scan type : Progressive
Bits/(Pixel*Frame) : 0.086
Stream size : 709 MiB (89%)
Color primaries : BT.709-5, BT.1361, IEC 61966-2-4, SMPTE RP177
Transfer characteristics : BT.709-5, BT.1361
Matrix coefficients : BT.709-5, BT.1361, IEC 61966-2-4 709, SMPTE RP177
Audio
ID : 2
Format : AC-3
Format/Info : Audio Coding 3
Mode extension : CM (complete main)
Codec ID : A_AC3
Duration : 50mn 12s
Bit rate mode : Constant
Bit rate : 192 Kbps
Channel(s) : 2 channels
Channel positions : Front: L R
Sampling rate : 44.1 KHz
Bit depth : 16 bits
Compression mode : Lossy
Delay relative to video : 52ms
Stream size : 68.9 MiB (9%)
Релиз от:
[Profile] [PM]
Display posts:    
Reply to topic

Current time is: 17-Jul 16:02

All times are UTC + 3



You cannot post new topics in this forum
You cannot reply to topics in this forum
You cannot edit your posts in this forum
You cannot delete your posts in this forum
You cannot vote in polls in this forum
You cannot attach files in this forum
You cannot download files in this forum