Последний герой: Актёры против экстрасенсов [7 сезон: 1-11 выпуск] (2019) WEBRip от Files-x

Reply to topic
 
Author Message

bond74 ®

Gender: Male

Longevity: 6 months 5 days

Posts: 426

Post 03-Mar-2019 08:49

[Quote]

Последний герой: Актёры против экстрасенсов Год выпуска: 2019
Жанр: Реалити-шоу
Выпущено: Россия, ТВ-3
Ведущий: Юлия Александрова, Ирина Безрукова, Илья Глинников, Роман Маякин, Наталия Медведева, Артур Смольянинов, Артем Сучков, Анфиса Черных, Денис Высоцкий, Виктория Комахина, Николь Кузнецова, Татьяна Ларина, Аида Мартиросян, Сергей Пахомов, Иван Шабанов, Намтар Энзигаль
Ведущий: Яна Троянова
О фильме: Новый сезон получил слоган «Остаться людьми». Местом проведения был выбран филиппинский остров Палаван. 16 участников, 8 мужчин и 8 женщин, были поделены на 2 племени: «Актёров» и «Экстрасенсов». Главный приз, в отличие от предыдущих шести сезонов, сократился на 1 миллион рублей, и составляет 2 000 000 рублей.
Качество: WEBRip
Видео: XviD, ~ 1700 Кбит/с, 720x400, 25 кадр/с
Аудио: AC3, 2 ch, 192 Кбит/с
Продолжительность: 11 х ~ 01:30:00
Перевод: Не требуется
Субтитры: нет

Скриншоты

MediaInfo

General
Complete name : H:\fiiles x\Последний герой (2019) WEB-DLRip. Files-x\01. Последний герой. Актеры против экстрасенсов (2019) WEB-DLRip. Files-x.avi
Format : AVI
Format/Info : Audio Video Interleave
File size : 1.15 GiB
Duration : 1h 26mn
Overall bit rate : 1 902 Kbps
Writing application : VirtualDubMod 1.5.10.3 | www.virtualdub-fr.org || (build 2550/release)
Writing library : VirtualDubMod build 2550/release
Video
ID : 0
Format : MPEG-4 Visual
Format profile : Advanced Simple@L5
Format settings, BVOP : 1
Format settings, QPel : No
Format settings, GMC : No warppoints
Format settings, Matrix : Custom
Codec ID : XVID
Codec ID/Hint : XviD
Duration : 1h 26mn
Bit rate : 1 700 Kbps
Width : 720 pixels
Height : 400 pixels
Display aspect ratio : 16:9
Frame rate : 25.000 fps
Color space : YUV
Chroma subsampling : 4:2:0
Bit depth : 8 bits
Scan type : Progressive
Compression mode : Lossy
Bits/(Pixel*Frame) : 0.236
Stream size : 1.03 GiB (89%)
Writing library : XviD 73
Audio
ID : 1
Format : AC-3
Format/Info : Audio Coding 3
Mode extension : CM (complete main)
Codec ID : 2000
Duration : 1h 26mn
Bit rate mode : Constant
Bit rate : 192 Kbps
Channel(s) : 2 channels
Channel positions : Front: L R
Sampling rate : 48.0 KHz
Bit depth : 16 bits
Compression mode : Lossy
Stream size : 119 MiB (10%)
Alignment : Split accross interleaves
Interleave, duration : 40 ms (1.00 video frame)
Interleave, preload duration : 500 ms
Релиз от:
[Profile] [PM]
Display posts:    
Reply to topic

Current time is: 20-May 11:21

All times are UTC + 3



You cannot post new topics in this forum
You cannot reply to topics in this forum
You cannot edit your posts in this forum
You cannot delete your posts in this forum
You cannot vote in polls in this forum
You cannot attach files in this forum
You cannot download files in this forum