Содержанки [1-3 серии из 8] (2019) WEBRip-AVC от Files-x

Ответить на тему
 
Автор Сообщение

Серый1779 ®

Пол: Мужской

Стаж: 4 месяца 6 дней

Сообщений: 316

Откуда: Украина

Создавать темы 07-Мар-2019 21:57

[Цитировать]


Содержанки
Год выпуска: 2019
Жанр: Триллер, эротика
Выпущено: Россия, Старт, Yellow, Black & White
Режиссер: Константин Богомолов
В ролях: Ольга Сутулова, Дарья Мороз, Мария Фомина, Софья Заика, Сергей Бурунов, Владимир Мишуков, Александр Кузнецов, Марина Зудина, Александр Збруев, Семён Штейнберг, Пётр Скворцов, Леонид Бичевин, Ирина Старшенбаум, Александра Ребенок, Сабина Ахмедова, Игорь Гордин, Роза Хайруллина, Сергей Чонишвили, Александра Ревенко, Ксения Собчак, Светлана Бондарчук, Вадим Верник
О фильме: Настоящее время. Москва. Город больших денег и страстей, великолепных женщин и состоятельных мужчин, светских раутов и опасных интриг. Здесь красивые девушки мечтают попасть в мир гламура, струящихся шелков и драгоценностей, а главная светская сваха города ловко пристраивает их в надежные руки. Сюда приезжает молодая амбициозная художница из провинции. Она мечтает о новой, лучшей жизни, но загадочное и жестокое происшествие изменит всё.

Качество: WEBRip-AVC
Видео: MPEG-4 AVC, ~ 1600 Кбит/с, 1024x576, 23.976 кадр/с
Аудио: AC3, 2 ch, 192 Кбит/с
Продолжительность: 3 х ~ 00:55:00
Перевод: Не требуется
Субтитры: нет

Скриншоты



MediaInfo

General
Unique ID : 202711571613194494293451510839061845490 (0x9880D41E1ADD287EB61AE8F7BEB915F2)
Complete name : F:\Soderzhanki.(2019).WEBRip.(AVC).Files-x\01.Soderzhanki.(2019).WEB-DLRip.(AVC).by.Серый1779.Files-x.mkv
Format : Matroska
Format version : Version 2
File size : 697 MiB
Duration : 54 min 22 s
Overall bit rate : 1 792 kb/s
Encoded date : UTC 2019-03-07 16:35:58
Writing application : mkvmerge v7.8.0 ('River Man') 32bit built on Apr 3 2015 12:11:22
Writing library : libebml v1.3.1 + libmatroska v1.4.2
Video
ID : 1
Format : AVC
Format/Info : Advanced Video Codec
Format profile : High@L4.1
Format settings : CABAC / 9 Ref Frames
Format settings, CABAC : Yes
Format settings, RefFrames : 9 frames
Codec ID : V_MPEG4/ISO/AVC
Duration : 54 min 22 s
Bit rate : 1 600 kb/s
Width : 1 024 pixels
Height : 576 pixels
Display aspect ratio : 16:9
Frame rate mode : Constant
Frame rate : 23.976 (24000/1001) FPS
Color space : YUV
Chroma subsampling : 4:2:0
Bit depth : 8 bits
Scan type : Progressive
Bits/(Pixel*Frame) : 0.113
Stream size : 608 MiB (87%)
Writing library : x264 core 146 r2538 121396c
Encoding settings : cabac=1 / ref=9 / deblock=1:-2:-1 / analyse=0x3:0x133 / me=umh / subme=9 / psy=1 / psy_rd=1.00:0.15 / mixed_ref=1 / me_range=32 / chroma_me=1 / trellis=2 / 8x8dct=1 / cqm=0 / deadzone=21,11 / fast_pskip=0 / chroma_qp_offset=-3 / threads=18 / lookahead_threads=3 / sliced_threads=0 / nr=0 / decimate=1 / interlaced=0 / bluray_compat=0 / constrained_intra=0 / bframes=9 / b_pyramid=2 / b_adapt=2 / b_bias=0 / direct=1 / weightb=1 / open_gop=0 / weightp=2 / keyint=250 / keyint_min=23 / scenecut=40 / intra_refresh=0 / rc=2pass / mbtree=0 / bitrate=1600 / ratetol=1.0 / qcomp=0.60 / qpmin=0 / qpmax=69 / qpstep=4 / cplxblur=20.0 / qblur=0.5 / ip_ratio=1.40 / pb_ratio=1.30 / aq=2:1.00
Default : Yes
Forced : No
Color range : Limited
Color primaries : BT.709
Transfer characteristics : BT.709
Matrix coefficients : BT.709
Audio
ID : 2
Format : AC-3
Format/Info : Audio Coding 3
Format settings, Endianness : Big
Codec ID : A_AC3
Duration : 54 min 22 s
Bit rate mode : Constant
Bit rate : 192 kb/s
Channel(s) : 2 channels
Channel positions : Front: L R
Sampling rate : 48.0 kHz
Frame rate : 31.250 FPS (1536 SPF)
Bit depth : 16 bits
Compression mode : Lossy
Stream size : 74.7 MiB (11%)
Service kind : Complete Main
Default : Yes
Forced : No
Релиз от:

Релиз подготовлен R.G.Files-x

[Профиль] [ЛС]
Показать сообщения:    
Ответить на тему

Текущее время: 18-Мар 22:37

Часовой пояс: UTC + 3



Вы не можете начинать темы
Вы не можете отвечать на сообщения
Вы не можете редактировать свои сообщения
Вы не можете удалять свои сообщения
Вы не можете голосовать в опросах
Вы не можете прикреплять файлы к сообщениям
Вы не можете скачивать файлы