Реализация [1-24 серии из 24] (2018) WEBRip от GeneralFilm

Reply to topic
 
Author Message

vsobbol ®

Gender: Male

Longevity: 6 months 5 days

Posts: 180

Location: Донецк

Post 12-Mar-2019 01:39

[Quote]

Реализация
Год выпуска: 2018
Жанр: Детектив
Выпущено: Россия, «Триикс Медиа»
Режиссер: Виктор Шкуратов, Сергей Щербин
В ролях: Дмитрий Паламарчук, Эдуард Флёров, Кирилл Рубцов, Сергей Юшкевич, Михаил Тарабукин, Максим Дахненко, Алексей Красноцветов, Ирина Ларионова, Игорь Ключников, Сергей Жарков, Елена Вожакина, Андрей Терентьев, Роман Агеев, Кирилл Полухин, Сергей Уманов, Вячеслав Аркунов, Алексей Штукин, Наталия Вязовская, Степан Пивкин, Виталий Салий, Юлия Кудояр, Игорь Грабузов, Антон Сычёв, Кирилл Кузнецов, Антон Чернов, Артём Цыпин, Владимир Петров (VIII), Станислав Ткаченко, Александр Клемантович, Олег Метелев, Юрий Ковалёв, Ирина Горкунова, Вячеслав Гумеров, Татьяна Ермилова (II), Дмитрий Могучев, Александр Петров (V), Михаил Сидаш, Геша Меньшиков, Александр Кратиров
О фильме: Опытного розыскника из Великого Новгорода с необычной фамилией Красавец после конфликта с влиятельным бизнесменом переводят на должность простого участкового в Центральный район Петербурга. Все, чего он теперь хочет — тихо и мирно дослужить до пенсии. Но едва ли не каждый день на новом месте Красавец оказывается в эпицентре преступных событий: то его втягивают в разборки между криминальным авторитетом и коллегами из УМВД, то он занимается поисками похищенного начальника главка, то ему приходится охотиться на неуловимого киллера…

Качество: WEBRip
Видео: XviD build 73, 720x400 (16:9), 25.000 fps, ~ 1400 Kbps (~ 0.195 bit/pixel)
Аудио: 48.0 kHz, AC3, 2/0 ch, 192 kbps
Продолжительность: 24 x ~ 00:49:00
Перевод: Не требуется
Cубтитры: нет

Скриншоты

MediaInfo

General
Complete name : D:\Razdachi\Realizacija.2018.WEBRip.GeneralFilm\Realizacija.e02.avi
Format : AVI
Format/Info : Audio Video Interleave
File size : 558 MiB
Duration : 48 min 22 s
Overall bit rate : 1 611 kb/s
Writing application : VirtualDubMod 1.5.10.3 | www.virtualdub-fr.org || (build 2550/release)
Writing library : VirtualDubMod build 2550/release
Video
ID : 0
Format : MPEG-4 Visual
Format profile : Advanced Simple@L5
Format settings : BVOP1 / Custom Matrix
Format settings, BVOP : 1
Format settings, QPel : No
Format settings, GMC : No warppoints
Format settings, Matrix : Custom
Codec ID : XVID
Codec ID/Hint : XviD
Duration : 48 min 22 s
Bit rate : 1 410 kb/s
Width : 720 pixels
Height : 400 pixels
Display aspect ratio : 16:9
Frame rate : 25.000 FPS
Color space : YUV
Chroma subsampling : 4:2:0
Bit depth : 8 bits
Scan type : Progressive
Compression mode : Lossy
Bits/(Pixel*Frame) : 0.196
Stream size : 488 MiB (87%)
Writing library : XviD 73
Audio
ID : 1
Format : AC-3
Format/Info : Audio Coding 3
Commercial name : Dolby Digital
Codec ID : 2000
Duration : 48 min 22 s
Bit rate mode : Constant
Bit rate : 192 kb/s
Channel(s) : 2 channels
Channel layout : L R
Sampling rate : 48.0 kHz
Frame rate : 31.250 FPS (1536 SPF)
Bit depth : 16 bits
Compression mode : Lossy
Stream size : 66.4 MiB (12%)
Alignment : Split accross interleaves
Interleave, duration : 40 ms (1.00 video frame)
Interleave, preload duratio : 500 ms
Service kind : Complete Main
Релиз от:


Last edited by vsobbol on 2019-03-23 22:48; edited 2 times in total
[Profile] [PM]

AlexVipGold

Gender: Male

Longevity: 6 months 1 day

Posts: 3

Location: Орск

Post 21-Mar-2019 06:55 (after 9 days)

[Quote]

vsobbol, Огромная благодарность за раздачу! Сериал лучший, смотрится на одном дыхании
[Profile] [PM]

vsobbol ®

Gender: Male

Longevity: 6 months 5 days

Posts: 180

Location: Донецк

Post 22-Mar-2019 00:42 (after 17 hours)

[Quote]

6586vsobbol, Огромная благодарность за раздачу! Сериал лучший, смотрится на одном дыхании
Пожалуйста. Приятного просмотра.
[Profile] [PM]

KRIEVS2011

Gender: Male

Longevity: 3 months 27 days

Posts: 5

Post 24-Mar-2019 07:56 (after 2 days 7 hours)

[Quote]

Очень хороший фильм
Отличные Актёры .....
СПАСИБО !!!
[Profile] [PM]
Display posts:    
Reply to topic

Current time is: 21-May 13:29

All times are UTC + 3



You cannot post new topics in this forum
You cannot reply to topics in this forum
You cannot edit your posts in this forum
You cannot delete your posts in this forum
You cannot vote in polls in this forum
You cannot attach files in this forum
You cannot download files in this forum