Фантом [1-16 серия из 16] (2019) WEB-DLRip-AVC от Files-х

Reply to topic
 
Author Message

Серый1779 ®

Gender: Male

Longevity: 6 months 9 days

Posts: 436

Location: Украина

Post 12-Mar-2019 02:07

[Quote]

Фантом Год выпуска: 2019
Жанр: Драма, детектив, психологический триллер
Выпущено: Россия, Украина, Film.ua
Режиссер: Сергей Сенцов
В ролях: Юрий Чурсин, Павел Майков, Тимофей Трибунцев, Михаил Кремер, Ян Гахарманов, Михаил Тарабукин, Лиза Толубеева, Зоя Бербер, Полина Сидихина, Сергей Епишев, Александр Галибин, Виктор Проскурин
О фильме:В клинике, где проходят реабилитацию люди с психическими расстройствами, приходит в чувства утративший память мужчина. Даже доктора не имеют малейшего представления о прошлом данного пациента. Они знают только имя. Иван пребывает в режимном учреждении на протяжении последнего года. Весь этот период его пичкают сильнейшими препаратами . Единственный, кому известна истина – это директор, но он не успел поделиться правдой. Руководитель лечебницы погибает при таинственных обстоятельствах. Во время следственных мероприятий мужчина узнает одного из оперативников. Между ним и Станиславом складываются сложные взаимоотношения, но к делу подключается Артур – сосед по больничной палате. Действия своеобразного тандема позволяют установить личность убийцы. Неожиданно для Вани к нему в гости наведывается супруга в компании лучшего друга. Они пытаются объяснить, что его настоящее имя - Павел. Ранее он был весьма успешным воротилой в сфере фармацевтического бизнеса. Но недоброжелатели решили избавиться от конкурента и подстроили его исчезновение. Не менее интересной оказывается жизнь Артура, ведь его истинная личина сильно отличается от выбранного образа.
Качество: WEB-DLRip-AVC
Видео: MPEG-4 AVC, ~ 1600 Кбит/с, 1024x576, 25 кадр/с
Аудио: AC3, 2 ch, 192 Кбит/с
Продолжительность: 16 х ~ 00:50:00
Перевод: Не требуется
Субтитры: нет

Скриншоты


MediaInfo

General
Unique ID : 202107541184376136375117715484057670570 (0x980C7F1E404E8559B622A886DC4E13AA)
Complete name : F:\Фантом.(2019).WEB-DLRip.(AVC).Files-x\01.Фантом.(2019).WEB-DLRip.(AVC).by.Серый1779.Files-x.mkv
Format : Matroska
Format version : Version 2
File size : 641 MiB
Duration : 49 min 55 s
Overall bit rate : 1 794 kb/s
Encoded date : UTC 2019-03-20 07:18:39
Writing application : mkvmerge v7.8.0 ('River Man') 32bit built on Apr 3 2015 12:11:22
Writing library : libebml v1.3.1 + libmatroska v1.4.2
Video
ID : 1
Format : AVC
Format/Info : Advanced Video Codec
Format profile : High@L4.1
Format settings : CABAC / 9 Ref Frames
Format settings, CABAC : Yes
Format settings, RefFrames : 9 frames
Codec ID : V_MPEG4/ISO/AVC
Duration : 49 min 55 s
Bit rate : 1 600 kb/s
Width : 1 024 pixels
Height : 576 pixels
Display aspect ratio : 16:9
Frame rate mode : Constant
Frame rate : 25.000 FPS
Color space : YUV
Chroma subsampling : 4:2:0
Bit depth : 8 bits
Scan type : Progressive
Bits/(Pixel*Frame) : 0.109
Stream size : 559 MiB (87%)
Writing library : x264 core 146 r2538 121396c
Encoding settings : cabac=1 / ref=9 / deblock=1:-2:-1 / analyse=0x3:0x133 / me=umh / subme=9 / psy=1 / psy_rd=1.00:0.15 / mixed_ref=1 / me_range=32 / chroma_me=1 / trellis=2 / 8x8dct=1 / cqm=0 / deadzone=21,11 / fast_pskip=0 / chroma_qp_offset=-3 / threads=18 / lookahead_threads=3 / sliced_threads=0 / nr=0 / decimate=1 / interlaced=0 / bluray_compat=0 / constrained_intra=0 / bframes=9 / b_pyramid=2 / b_adapt=2 / b_bias=0 / direct=1 / weightb=1 / open_gop=0 / weightp=2 / keyint=250 / keyint_min=25 / scenecut=40 / intra_refresh=0 / rc=2pass / mbtree=0 / bitrate=1600 / ratetol=1.0 / qcomp=0.60 / qpmin=0 / qpmax=69 / qpstep=4 / cplxblur=20.0 / qblur=0.5 / ip_ratio=1.40 / pb_ratio=1.30 / aq=2:1.00
Default : Yes
Forced : No
Color range : Limited
Color primaries : BT.709
Transfer characteristics : BT.709
Matrix coefficients : BT.709
Audio
ID : 2
Format : AC-3
Format/Info : Audio Coding 3
Format settings, Endianness : Big
Codec ID : A_AC3
Duration : 49 min 55 s
Bit rate mode : Constant
Bit rate : 192 kb/s
Channel(s) : 2 channels
Channel positions : Front: L R
Sampling rate : 44.1 kHz
Frame rate : 28.711 FPS (1536 SPF)
Bit depth : 16 bits
Compression mode : Lossy
Stream size : 68.6 MiB (11%)
Service kind : Complete Main
Default : Yes
Forced : No
Релиз от:


Last edited by Серый1779 on 2019-04-05 21:56; edited 10 times in total
[Profile] [PM]

Серый1779 ®

Gender: Male

Longevity: 6 months 9 days

Posts: 436

Location: Украина

Post 21-Mar-2019 00:16 (after 8 days)

[Quote]

Замена на рип без логотипа канала.
[Profile] [PM]
Display posts:    
Reply to topic

Current time is: 21-May 13:26

All times are UTC + 3



You cannot post new topics in this forum
You cannot reply to topics in this forum
You cannot edit your posts in this forum
You cannot delete your posts in this forum
You cannot vote in polls in this forum
You cannot attach files in this forum
You cannot download files in this forum