Семь ужинов (2019) WEB-DLRip от GeneralFilm | iTunes

Reply to topic
 
Author Message

vsobbol ®

Gender: Male

Longevity: 6 months 4 days

Posts: 179

Location: Донецк

Post 14-Mar-2019 19:16

[Quote]

Семь ужинов
Год выпуска: 2019
Жанр: Комедия
Выпущено: Россия, «Renovatio ent.»
Режиссер: Кирилл Плетнев
В ролях: Роман Курцын, Полина Максимова, Елена Яковлева, Владимир Ильин, Петар Зекавица, Анастасия Уколова, Вера Гурьева, Александр Лыков
О фильме: После пяти лет совместной жизни отношения супругов разваливаются: детей нет, любовь остыла, общих интересов практически не осталось. Когда жена просит развод, главный герой вдруг осознает, что не готов отпустить близкого человека и уговаривает жену протестировать будто бы разработанную им научную методику восстановления отношений. Называется она «Семь ужинов». И если после участия в этом эксперименте девушка не изменит решение, он даст ей развод. Все просто — они должны будут поужинать семь раз. Но выясняется, что каждый раз будут новые вводные — ужин в темноте, ужин без одежды, ужин в присутствии постороннего человека… Жена, уверенная в том, что это лишь наивный повод оттянуть расставание, снисходительно соглашается.

Качество: WEB-DLRip
Видео: XviD build 73, 720x304 (2.37:1), 24.000 fps, 1024 Kbps (0.195 bit/pixel)
Аудио: 48.0 kHz, MP3 2ch, 128 kbps
Продолжительность: 01:29:44
Перевод: Не требуется
Cубтитры: нет

Скриншоты

MediaInfo

General
Complete name : D:\Razdachi\7.Uzhinov.2019.WEB-DLRip.GeneralFilm.avi
Format : AVI
Format/Info : Audio Video Interleave
File size : 745 MiB
Duration : 1 h 29 min
Overall bit rate : 1 161 kb/s
Writing application : VirtualDubMod 1.5.10.3 | www.virtualdub-fr.org || (build 2550/release)
Writing library : VirtualDubMod build 2550/release
Video
ID : 0
Format : MPEG-4 Visual
Format profile : Advanced Simple@L5
Format settings : BVOP1 / Custom Matrix
Format settings, BVOP : 1
Format settings, QPel : No
Format settings, GMC : No warppoints
Format settings, Matrix : Custom
Codec ID : XVID
Codec ID/Hint : XviD
Duration : 1 h 29 min
Bit rate : 1 024 kb/s
Width : 720 pixels
Height : 304 pixels
Display aspect ratio : 2.35:1
Frame rate : 24.000 FPS
Color space : YUV
Chroma subsampling : 4:2:0
Bit depth : 8 bits
Scan type : Progressive
Compression mode : Lossy
Bits/(Pixel*Frame) : 0.195
Stream size : 657 MiB (88%)
Writing library : XviD 73
Audio
ID : 1
Format : MPEG Audio
Format version : Version 1
Format profile : Layer 3
Codec ID : 55
Codec ID/Hint : MP3
Duration : 1 h 29 min
Bit rate mode : Constant
Bit rate : 128 kb/s
Channel(s) : 2 channels
Sampling rate : 48.0 kHz
Frame rate : 41.667 FPS (1152 SPF)
Compression mode : Lossy
Stream size : 82.2 MiB (11%)
Alignment : Aligned on interleaves
Interleave, duration : 42 ms (1.00 video frame)
Interleave, preload duratio : 504 ms
Writing library : LAME3.99r
Encoding settings : -m s -V 4 -q 2 -lowpass 17 -b 128
Релиз от:
[Profile] [PM]
Display posts:    
Reply to topic

Current time is: 20-May 12:22

All times are UTC + 3



You cannot post new topics in this forum
You cannot reply to topics in this forum
You cannot edit your posts in this forum
You cannot delete your posts in this forum
You cannot vote in polls in this forum
You cannot attach files in this forum
You cannot download files in this forum