Сколько живет любовь [1-4 серии из 4] (2019) WEB-DLRip от Files-x

Reply to topic
 
Author Message

bond74 ®

Gender: Male

Longevity: 6 months 6 days

Posts: 436

Post 15-Mar-2019 00:14

[Quote]

Сколько живет любовь Год выпуска: 2019
Жанр: Мелодрама
Выпущено: Россия, Эволюшн Пикчерс
Режиссер: Денис Елеонский
В ролях: Вячеслав Чепурченко, Ольга Павловец, Юлия Рудина, Алексей Федькин, Наталья Бурмистрова (II), Андрей Полищук, Евгений Зарубин, Вячеслав Коробицин, Любовь Макеева, Татьяна Мишина, Елена Руфанова, Михаил Соловьёв, Мария Шманина
О фильме: Учительнице математики Вере Алексеевне трудно найти общий язык с отчаянным хулиганом, второгодником Сашей. Одиннадцатиклассник рискует остаться без аттестата даже со второй попытки. Вера принимает решение подтянуть парня по своему предмету, но во время занятий Саша внезапно признается ей в любви. Вера замужем, ее пугает создавшаяся ситуация, разница в возрасте. А еще больше – настойчивость Саши, который добивается своей цели, невзирая на препятствия… Прошло много лет… Александр стал президентом крупной финансовой компании, дела его идут в гору и у него счастливый брак. Единственное, что омрачает семейную жизнь – отсутствие детей. А еще, словно капли яда, потихоньку отравляющие жизнь пары, окружающие и осуждающие их близкие люди. Ведь жена Саши намного его старше... Смогут ли супруги сохранить чувство, когда весь мир против них?
Качество: WEB-DLRip
Видео: XviD, ~ 1600 Кбит/с, 720x400, 25 кадр/с
Аудио: AC3, 2 ch, 192 Кбит/с
Продолжительность: 4 x ~ 00:49:00
Перевод: Не требуется
Субтитры: нет

Скриншоты

MediaInfo

General
Complete name : C:\Users\user\Downloads\Video\01. Skolko.zhivet.lyubov.(2019).WEB-DLRip. Files-x.avi
Format : AVI
Format/Info : Audio Video Interleave
File size : 594 MiB
Duration : 46mn 5s
Overall bit rate : 1 802 Kbps
Writing application : VirtualDubMod 1.5.10.3 | www.virtualdub-fr.org || (build 2550/release)
Writing library : VirtualDubMod build 2550/release
Video
ID : 0
Format : MPEG-4 Visual
Format profile : Advanced Simple@L5
Format settings, BVOP : 1
Format settings, QPel : No
Format settings, GMC : No warppoints
Format settings, Matrix : Custom
Codec ID : XVID
Codec ID/Hint : XviD
Duration : 46mn 5s
Bit rate : 1 600 Kbps
Width : 720 pixels
Height : 400 pixels
Display aspect ratio : 16:9
Frame rate : 25.000 fps
Color space : YUV
Chroma subsampling : 4:2:0
Bit depth : 8 bits
Scan type : Progressive
Compression mode : Lossy
Bits/(Pixel*Frame) : 0.222
Stream size : 528 MiB (89%)
Writing library : XviD 73
Audio
ID : 1
Format : AC-3
Format/Info : Audio Coding 3
Mode extension : CM (complete main)
Codec ID : 2000
Duration : 46mn 5s
Bit rate mode : Constant
Bit rate : 192 Kbps
Channel(s) : 2 channels
Channel positions : Front: L R
Sampling rate : 48.0 KHz
Bit depth : 16 bits
Compression mode : Lossy
Stream size : 63.3 MiB (11%)
Alignment : Split accross interleaves
Interleave, duration : 40 ms (1.00 video frame)
Interleave, preload duration : 500 ms
Релиз от:
[Profile] [PM]
Display posts:    
Reply to topic

Current time is: 21-May 13:26

All times are UTC + 3



You cannot post new topics in this forum
You cannot reply to topics in this forum
You cannot edit your posts in this forum
You cannot delete your posts in this forum
You cannot vote in polls in this forum
You cannot attach files in this forum
You cannot download files in this forum