Тройная угроза / Triple Threat (2019) WEB-DLRip-AVC от GeneralFilm | iTunes

Reply to topic
 
Author Message

olegka7373 ®

Gender: Male

Longevity: 5 months 10 days

Posts: 88

Location: Россия, Новокузнецк

Post 22-Mar-2019 05:05

[Quote]

Тройная угроза / Triple Threat
Год выпуска: 2019
Жанр: Боевик, триллер, криминал
Выпущено: Таиланд, Китай, США / Aurora Alliance Films, Hamilton Entertainment, Kungfuman Culture Media, SC Films Thailand Co
Режиссер: Джесси Джонсон
В ролях: Тони Джа, Ико Уайс, Тайгер Чэнь, Скотт Эдкинс, Селина Джейд, Майкл Джей Уайт, Доминик Ванденберг, Яанин Висмитананда, Майкл Вон, Дэниэл Уайт
О фильме: Международная преступная группировка посылает команду профессиональных киллеров убить дочь миллиардера, которая задумала положить конец их криминальной деятельности. Спасать девушку будут трое наёмников, в прошлом — успешных бойцов.

Качество: WEB-DLRip-AVC
Видео: MPEG-4 AVC, 2000 Кбит/с, 1024х424, 23,976 fps
Аудио: Русский (AC3, 6 ch, 384 Кбит/с)
Продолжительность: 01:35:51
Перевод: Дублированный
Субтитры: нет

Скриншоты


MediaInfo

Общее
Уникальный идентификатор : 218784669700585719469165574794210144136 (0xA49865096A6E5451A838F43C5F3B6F88)
Полное имя : D:Triple Threat.(2019).WEB-DLRip.(AVC).GeneralFilm.mkv
Формат : Matroska
Версия формата : Version 2
Размер файла : 1,60 Гбайт
Продолжительность : 1 ч. 35 м.
Общий поток : 2385 Кбит/сек
Дата кодирования : UTC 2019-03-22 01:47:37
Программа кодирования : mkvmerge v7.8.0 ('River Man') 32bit built on Apr 3 2015 12:11:22
Библиотека кодирования : libebml v1.3.1 + libmatroska v1.4.2
Видео
Идентификатор : 1
Формат : AVC
Формат/Информация : Advanced Video Codec
Профиль формата : High@L4.1
Параметр CABAC формата : Да
Параметр ReFrames формата : 9 кадров
Идентификатор кодека : V_MPEG4/ISO/AVC
Продолжительность : 1 ч. 35 м.
Битрейт : 2000 Кбит/сек
Ширина : 1024 пикселя
Высота : 424 пикселя
Соотношение сторон : 2,40:1
Режим частоты кадров : Постоянный
Частота кадров : 23,976 (24000/1001) кадра/сек
Цветовое пространство : YUV
Субдискретизация насыщенности : 4:2:0
Битовая глубина : 8 бит
Тип развёртки : Прогрессивная
Бит/(Пиксели*Кадры) : 0.192
Размер потока : 1,31 Гбайт (82%)
Библиотека кодирования : x264 core 146 r2538 121396c
Настройки программы : cabac=1 / ref=9 / deblock=1:-2:-1 / analyse=0x3:0x113 / me=umh / subme=9 / psy=1 / psy_rd=1.00:0.15 / mixed_ref=1 / me_range=32 / chroma_me=1 / trellis=2 / 8x8dct=1 / cqm=0 / deadzone=21,11 / fast_pskip=0 / chroma_qp_offset=-3 / threads=18 / lookahead_threads=3 / sliced_threads=0 / nr=0 / decimate=1 / interlaced=0 / bluray_compat=0 / constrained_intra=0 / bframes=9 / b_pyramid=2 / b_adapt=2 / b_bias=0 / direct=1 / weightb=1 / open_gop=0 / weightp=2 / keyint=250 / keyint_min=23 / scenecut=40 / intra_refresh=0 / rc_lookahead=40 / rc=2pass / mbtree=0 / bitrate=2000 / ratetol=1.0 / qcomp=0.60 / qpmin=0 / qpmax=69 / qpstep=4 / cplxblur=20.0 / qblur=0.5 / vbv_maxrate=14000 / vbv_bufsize=14000 / nal_hrd=none / filler=0 / ip_ratio=1.40 / pb_ratio=1.30 / aq=2:1.00
Default : Да
Forced : Нет
Цветовой диапазон : Limited
Основные цвета : BT.709
Характеристики трансфера : BT.709
Коэффициенты матрицы : BT.709
Аудио
Идентификатор : 2
Формат : AC-3
Формат/Информация : Audio Coding 3
Расширение режима : CM (complete main)
Параметр Endianness формата : Big
Идентификатор кодека : A_AC3
Продолжительность : 1 ч. 35 м.
Вид битрейта : Постоянный
Битрейт : 384 Кбит/сек
Каналы : 6 каналов
Расположение каналов : Front: L C R, Side: L R, LFE
Частота : 48,0 КГц
Частота кадров : 31,250 кадров/сек (1536 spf)
Битовая глубина : 16 бит
Метод сжатия : С потерями
Размер потока : 263 Мбайт (16%)
Default : Да
Forced : Нет
Релиз:
[Profile] [PM]
Display posts:    
Reply to topic

Current time is: 24-Apr 03:44

All times are UTC + 3



You cannot post new topics in this forum
You cannot reply to topics in this forum
You cannot edit your posts in this forum
You cannot delete your posts in this forum
You cannot vote in polls in this forum
You cannot attach files in this forum
You cannot download files in this forum