Школа экстрасенсов [1-3 выпуск] (2019) WEBRip от Files-x

Reply to topic
 
Author Message

bond74 ®

Gender: Male

Longevity: 5 months 9 days

Posts: 312

Post 08-Apr-2019 03:35

[Quote]

Школа экстрасенсов Год выпуска: 2019
Жанр: Реалити-шоу
Выпущено: Россия, ТНТ
В ролях: Сергей Сафронов, Свами Даши, Константин Гецати
О фильме: Можно ли обучить сверхспособностям и экстрасенсорике? Возможно ли развить дар у любого человека или к этому должна быть предрасположенность? Многие люди замечают в себе необычные способности, но не все знают, что с ними делать. Дар экстрасенсорики дается свыше, но его усиление и развитие – сложный и закрытый процесс. В «Школе экстрасенсов» люди, которые чувствуют в себе экстрасенсорные способности, будут учиться их развивать, чтобы встать в один ряд с прославленными ясновидящими. В качестве наставников школы были приглашены два сильнейших экстрасенса: победитель 17-го сезона «Битвы» мистик Свами Даши и победитель 18-го сезона аланский провидец Константин Гецати.
Качество: WEBRip
Видео: XviD, 1700 Кбит/c, 720x400, 25 кадр/с
Аудио: AC3, 2 ch, 192 Кбит/с
Продолжительность: 3 х ~ 01:28:34
Перевод: Не требуется
Субтитры: нет

Скриншоты

MediaInfo

General
Complete name : H:\01. Школа экстрасенсов .2019.WEB-DLRip. Files-x.avi
Format : AVI
Format/Info : Audio Video Interleave
File size : 1.18 GiB
Duration : 1h 29mn
Overall bit rate : 1 902 Kbps
Writing application : VirtualDubMod 1.5.10.3 | www.virtualdub-fr.org || (build 2550/release)
Writing library : VirtualDubMod build 2550/release
Video
ID : 0
Format : MPEG-4 Visual
Format profile : Advanced Simple@L5
Format settings, BVOP : 1
Format settings, QPel : No
Format settings, GMC : No warppoints
Format settings, Matrix : Custom
Codec ID : XVID
Codec ID/Hint : XviD
Duration : 1h 29mn
Bit rate : 1 700 Kbps
Width : 720 pixels
Height : 400 pixels
Display aspect ratio : 16:9
Frame rate : 25.000 fps
Color space : YUV
Chroma subsampling : 4:2:0
Bit depth : 8 bits
Scan type : Progressive
Compression mode : Lossy
Bits/(Pixel*Frame) : 0.236
Stream size : 1.06 GiB (89%)
Writing library : XviD 73
Audio
ID : 1
Format : AC-3
Format/Info : Audio Coding 3
Mode extension : CM (complete main)
Codec ID : 2000
Duration : 1h 29mn
Bit rate mode : Constant
Bit rate : 192 Kbps
Channel(s) : 2 channels
Channel positions : Front: L R
Sampling rate : 48.0 KHz
Bit depth : 16 bits
Compression mode : Lossy
Stream size : 122 MiB (10%)
Alignment : Split accross interleaves
Interleave, duration : 40 ms (1.00 video frame)
Interleave, preload duration : 500 ms
Релиз от:
[Profile] [PM]
Display posts:    
Reply to topic

Current time is: 24-Apr 03:44

All times are UTC + 3



You cannot post new topics in this forum
You cannot reply to topics in this forum
You cannot edit your posts in this forum
You cannot delete your posts in this forum
You cannot vote in polls in this forum
You cannot attach files in this forum
You cannot download files in this forum