Уральские пельмени. Шубный приговор (2019.04.12) (2019) WEB-DLRip 720p

Reply to topic
 
Author Message

oleg8 ®

Gender: Male

Longevity: 3 months 15 days

Posts: 603

Location: Украина

Post 13-Apr-2019 05:59

[Quote]

Уральские пельмени. Шубный приговор (2019.04.12) Год выпуска: 2019
Жанр: Юмор
Выпущено: Росссия,СТС
Режиссер: Константин Куц, Леонид Коновалов, Анастасия Гуделова
В ролях: Дмитрий Брекоткин, Сергей Ершов, Сергей Исаев, Сергей Калугин, Вячеслав Мясников, Александр Попов, Андрей Рожков, Дмитрий Соколов, Максим Ярица, Юля Михалкова
О фильме: Они знают все скамейки возле бутиков! Больше всего они радуются, когда жене есть чего надеть. Смс по их банковским картам для них всегда неожиданность. Они всю жизнь таскают пакеты: из дома с мусором, в дом с женскими вещами. И они точно знают, зачем в природе пушные звери. Они вынесут свой «ШУБНЫЙ ПРИГОВОР»!
Качество: WEB-DLRip 720p
Видео: AVC/H.264, 1280x720 (16:9), ~2090 Kbps
Аудио: AC3, 2 ch, 192 Kbps
Продолжительность: 01:13:02
Перевод / Озвучка: Не требуется [Русский]
Cубтитры: нет

Скриншоты

MediaInfo

Общее
Уникальный идентификатор : 73402970146810411463442832543453021793 (0x3738E5D79D623D6AD2D602E8823C0661)
Полное имя : G:\Шубный приговор. Уральские пельмени (12.04.2019).mkv
Формат : Matroska
Версия формата : Version 4
Размер файла : 1,19 Гбайт
Продолжительность : 1 ч. 13 м.
Общий поток : 2328 Кбит/сек
Программа кодирования : Lavf57.71.100
Библиотека кодирования : Lavf57.71.100
ErrorDetectionType : Per level 1
Видео
Идентификатор : 1
Формат : AVC
Формат/Информация : Advanced Video Codec
Профиль формата : Main@L3.1
Настройки формата : CABAC / 3 Ref Frames
Параметр CABAC формата : Да
Параметр RefFrames формата : 3 кадра
Идентификатор кодека : V_MPEG4/ISO/AVC
Продолжительность : 1 ч. 13 м.
Битрейт : 2090 Кбит/сек
Ширина : 1280 пикселей
Высота : 720 пикселей
Соотношение сторон : 16:9
Режим частоты кадров : Постоянный
Частота кадров : 25,000 кадров/сек
Цветовое пространство : YUV
Субдискретизация насыщенности : 4:2:0
Битовая глубина : 8 бит
Тип развёртки : Прогрессивная
Бит/(Пиксели*Кадры) : 0.091
Размер потока : 1,07 Гбайт (90%)
Default : Да
Forced : Нет
Цветовой диапазон : Limited
Основные цвета : BT.709
Характеристики трансфера : BT.709
Коэффициенты матрицы : BT.709
Аудио
Идентификатор : 2
Формат : AC-3
Формат/Информация : Audio Coding 3
Коммерческое название : Dolby Digital
Идентификатор кодека : A_AC3
Продолжительность : 1 ч. 13 м.
Вид битрейта : Постоянный
Битрейт : 192 Кбит/сек
Каналы : 2 канала
Channel layout : L R
Частота : 48,0 КГц
Частота кадров : 31,250 кадров/сек (1536 SPF)
Битовая глубина : 16 бит
Метод сжатия : С потерями
Задержка видео : -40 мс.
Размер потока : 100 Мбайт (8%)
ServiceKind/String : Complete Main
Default : Да
Forced : Нет
[Profile] [PM]
Display posts:    
Reply to topic

Current time is: 17-Jul 15:22

All times are UTC + 3



You cannot post new topics in this forum
You cannot reply to topics in this forum
You cannot edit your posts in this forum
You cannot delete your posts in this forum
You cannot vote in polls in this forum
You cannot attach files in this forum
You cannot download files in this forum