Воин / Warrior (2019) [1-2 серия из 10] WEB-DLRip 720p | AlexFilm

Reply to topic
 
Author Message

White Smoke ®

Gender: Male

Longevity: 5 months 10 days

Posts: 60

Post 14-Apr-2019 00:09

[Quote]

Воин / Warrior Год выпуска: 2019
Жанр: боевик, драма, история
Выпущено: США Канал: CINEMAX US
Режиссер: Лони Перистер, Лин Одинг, Дэвид Петрарка
В ролях: Джейсон Дж. Тобин, Эндрю Кодзи, Оливия Ченг, Киран Бью, Дайян Доан, Дин Джаггер III, Лэнгли Кирквуд, Перри Юнг, Райан Крюгер, Рич Тинг
О фильме: Сериал основан на оригинальной идее Брюса Ли. В 1890-х годах город Сан-Франциско страдал от коррупции и мафии. В китайском квартале Сан-Франциско междоусобные войны достигли особого размаха. В это неспокойное время в город из Китая прибывает молодой мастер восточных единоборств А Сам (Ah Sahm). Молодой человек тут же оказывается втянутым в кровавые разборки между двумя опасными соперничающими друг с другом группировками Тонг в Чайнатауне. А Сам подвергает себя смертельной опасности, после того как план мести, который он готовил не один год, становится известен его врагам.
Качество: WEB-DLRip 720p
Видео: AVC, 1280x720 (16:9), 23.976 fps, 2 488 Kbps (0.113 bit/pixel)
Аудио: AC3, 48.0 KHz, 6 ch, 384 Kbps, CBR (Russian)
Аудио #2: AC3, 48.0 KHz, 6 ch, 384 Kbps, CBR (English)
Продолжительность: ~01:00:04
Перевод / Озвучка: Профессиональный [многоголосый] AlexFilm
Cубтитры: Русские, английские
Внимание! Присутствует ненормативная лексика

Скриншоты




MediaInfo

General
Unique ID : 41852773674345018026276801395144584481 (0x1F7C8D0ED3FBF15CCB2DD353AF54ED21)
Complete name : E:\Warrior.s01.WEB-DL.720p.Rus.Eng.AlexFilm\Warrior.s01e01.WEB-DL.720p.Rus.Eng.AlexFilm.mkv
Format : Matroska
Format version : Version 4 / Version 2
File size : 1.39 GiB
Duration : 1 h 0 min
Overall bit rate : 3 258 kb/s
Movie name : Warrior 1x01 @ AlexFilm
Encoded date : UTC 2019-04-11 19:43:44
Writing application : mkvmerge v31.0.0 ('Dolores In A Shoestand') 64-bit
Writing library : libebml v1.3.6 + libmatroska v1.4.9
Video
ID : 1
Format : AVC
Format/Info : Advanced Video Codec
Format profile : High@L3.1
Format settings : CABAC / 4 Ref Frames
Format settings, CABAC : Yes
Format settings, ReFrames : 4 frames
Codec ID : V_MPEG4/ISO/AVC
Duration : 1 h 0 min
Bit rate mode : Constant
Bit rate : 2 488 kb/s
Nominal bit rate : 6 000 kb/s
Width : 1 280 pixels
Height : 720 pixels
Display aspect ratio : 16:9
Frame rate mode : Constant
Frame rate : 23.976 (24000/1001) FPS
Color space : YUV
Chroma subsampling : 4:2:0
Bit depth : 8 bits
Scan type : Progressive
Bits/(Pixel*Frame) : 0.113
Stream size : 1.06 GiB (76%)
Default : Yes
Forced : No
Color range : Limited
Color primaries : BT.709
Transfer characteristics : BT.709
Matrix coefficients : BT.709
Audio #1
ID : 2
Format : AC-3
Format/Info : Audio Coding 3
Commercial name : Dolby Digital
Codec ID : A_AC3
Duration : 1 h 0 min
Bit rate mode : Constant
Bit rate : 384 kb/s
Channel(s) : 6 channels
Channel layout : L R C LFE Ls Rs
Sampling rate : 48.0 kHz
Frame rate : 31.250 FPS (1536 SPF)
Bit depth : 16 bits
Compression mode : Lossy
Stream size : 167 MiB (12%)
Title : DD5.1 AlexFilm
Language : Russian
Service kind : Complete Main
Default : Yes
Forced : No
Audio #2
ID : 3
Format : AC-3
Format/Info : Audio Coding 3
Commercial name : Dolby Digital
Codec ID : A_AC3
Duration : 1 h 0 min
Bit rate mode : Constant
Bit rate : 384 kb/s
Channel(s) : 6 channels
Channel layout : L R C LFE Ls Rs
Sampling rate : 48.0 kHz
Frame rate : 31.250 FPS (1536 SPF)
Bit depth : 16 bits
Compression mode : Lossy
Delay relative to video : 20 ms
Stream size : 167 MiB (12%)
Title : DD5.1 Original
Language : English
Service kind : Complete Main
Default : No
Forced : No
Text #1
ID : 4
Format : UTF-8
Codec ID : S_TEXT/UTF8
Codec ID/Info : UTF-8 Plain Text
Duration : 59 min 33 s
Bit rate : 71 b/s
Count of elements : 693
Stream size : 31.2 KiB (0%)
Language : Russian
Default : No
Forced : No
Text #2
ID : 5
Format : UTF-8
Codec ID : S_TEXT/UTF8
Codec ID/Info : UTF-8 Plain Text
Duration : 1 h 0 min
Bit rate : 55 b/s
Count of elements : 997
Stream size : 24.9 KiB (0%)
Title : SDH
Language : English
Default : No
Forced : No
Релиз от:
[Profile] [PM]
Display posts:    
Reply to topic

Current time is: 24-Apr 03:45

All times are UTC + 3



You cannot post new topics in this forum
You cannot reply to topics in this forum
You cannot edit your posts in this forum
You cannot delete your posts in this forum
You cannot vote in polls in this forum
You cannot attach files in this forum
You cannot download files in this forum