Любовницы (2019) WEB-DLRip AVC | iTunes

Reply to topic
 
Author Message

Monk ®

Gender: Male

Longevity: 5 months 9 days

Posts: 5477

Location: Казань

Post 14-Apr-2019 10:49

[Quote]

Любовницы Год выпуска: 2019
Жанр: Комедия
Выпущено: Россия, КВФильм-Продакшн, Революция Фильм
Режиссер: Елена Хазанова
В ролях: Паулина Андреева, Александра Бортич, Юлия Александрова, Мария Шалаева, Сергей Гармаш, Гоша Куценко, Юрий Стоянов, Максим Лагашкин, Александр Робак, Владимир Мишуков
О фильме: Три обычные москвички - медсестра, студентка и актриса - случайно встречаются в баре и выясняют, что все они только что расстались со своими мужчинами, которые оказались связаны узами брака. Для начала девушки решают отомстить своим бывшим. Но когда цель достигнута, у подруг появляется идея: используя свою смекалку и артистические способности, помогать таким же, как они, сёстрам по несчастью, выводить на чистую воду неверных мужей и наказывать двуличных любовников. Ведь таких, как они - тысячи...
Качество: WEB-DLRip AVC
Видео: MPEG-4 AVС, 2000 Кбит/с, 1024x430
Аудио: AC3, 6 ch, 384 Кбит/с
Продолжительность: 01:37:22
Перевод: Не требуется [iTunes]

Скриншоты


MediaInfo

Format : Matroska
Format version : Version 4 / Version 2
File size : 1.62 GiB
Duration : 1 h 37 min
Overall bit rate : 2 385 kb/s
Encoded date : UTC 2019-04-12 12:07:13
Writing application : mkvmerge v32.0.0 ('Astral Progressions') 64-bit
Writing library : libebml v1.3.7 + libmatroska v1.5.0
Video
ID : 1
Format : AVC
Format/Info : Advanced Video Codec
Format profile : Main@L4
Format settings, CABAC : Yes
Format settings, ReFrames : 5 frames
Codec ID : V_MPEG4/ISO/AVC
Duration : 1 h 37 min
Bit rate : 2 000 kb/s
Width : 1 024 pixels
Height : 430 pixels
Display aspect ratio : 2.40:1
Frame rate mode : Constant
Frame rate : 24.000 FPS
Color space : YUV
Chroma subsampling : 4:2:0
Bit depth : 8 bits
Scan type : Progressive
Bits/(Pixel*Frame) : 0.189
Stream size : 1.36 GiB (84%)
Writing library : x264 core 155 r2901 7d0ff22
Encoding settings : cabac=1 / ref=5 / deblock=1:0:0 / analyse=0x1:0x111 / me=hex / subme=8 / psy=1 / psy_rd=1.00:0.00 / mixed_ref=1 / me_range=16 / chroma_me=1 / trellis=2 / 8x8dct=0 / cqm=0 / deadzone=21,11 / fast_pskip=1 / chroma_qp_offset=-2 / threads=13 / lookahead_threads=2 / sliced_threads=0 / nr=0 / decimate=1 / interlaced=0 / bluray_compat=0 / constrained_intra=0 / bframes=3 / b_pyramid=2 / b_adapt=1 / b_bias=0 / direct=3 / weightb=1 / open_gop=0 / weightp=2 / keyint=240 / keyint_min=24 / scenecut=40 / intra_refresh=0 / rc_lookahead=50 / rc=2pass / mbtree=1 / bitrate=2000 / ratetol=1.0 / qcomp=0.60 / qpmin=0 / qpmax=69 / qpstep=4 / cplxblur=20.0 / qblur=0.5 / vbv_maxrate=20000 / vbv_bufsize=25000 / nal_hrd=none / filler=0 / ip_ratio=1.40 / aq=1:1.00
Language : Russian
Default : Yes
Forced : No
Color range : Limited
Color primaries : BT.709
Transfer characteristics : BT.709
Matrix coefficients : BT.709
Audio
ID : 2
Format : AC-3
Format/Info : Audio Coding 3
Format settings, Endianness : Big
Codec ID : A_AC3
Duration : 1 h 37 min
Bit rate mode : Constant
Bit rate : 384 kb/s
Channel(s) : 6 channels
Channel positions : Front: L C R, Side: L R, LFE
Sampling rate : 48.0 kHz
Frame rate : 31.250 FPS (1536 spf)
Bit depth : 16 bits
Compression mode : Lossy
Stream size : 267 MiB (16%)
Title : rus [iTunes]
Language : Russian
Service kind : Complete Main
Default : Yes
Forced : No
Menu
00:00:00.000 : en:Глава 1
00:05:53.166 : en:Глава 2
00:12:35.332 : en:Глава 3
00:21:45.831 : en:Глава 4
00:28:45.289 : en:Глава 5
00:33:28.497 : en:Глава 6
00:42:54.497 : en:Глава 7
00:50:50.872 : en:Глава 8
00:57:25.247 : en:Глава 9
01:07:50.080 : en:Глава 10
01:13:25.996 : en:Глава 11
01:19:39.578 : en:Глава 12
01:25:26.994 : en:Глава 13
01:32:32.994 : en:Глава 14
01:37:21.994 : en:Глава 1
[Profile] [PM]
Display posts:    
Reply to topic

Current time is: 24-Apr 03:47

All times are UTC + 3



You cannot post new topics in this forum
You cannot reply to topics in this forum
You cannot edit your posts in this forum
You cannot delete your posts in this forum
You cannot vote in polls in this forum
You cannot attach files in this forum
You cannot download files in this forum