Подкидыш [1-12 серии из 12] (2019) WEB-DLRip от GeneralFilm

Reply to topic
 
Author Message

vsobbol ®

Gender: Male

Longevity: 5 months 8 days

Posts: 162

Location: Донецк

Post 14-Apr-2019 14:44

[Quote]

Подкидыш
Год выпуска: 2019
Жанр: Детектив
Выпущено: Россия, «Медиаслово», «Амедиа Продакшн»
Режиссер: Антон Борматов
В ролях: Антон Шагин, Тимофей Трибунцев, Аглая Тарасова, Евгений Антропов, Сергей Барковский, Семён Шкаликов, Николай Шрайбер, Владимир Глазков, Алексей Фролов, Вероника Голина, Алексей Федькин, Игорь Грабузов, Илья Носков, Степан Бекетов, Александр Ткачев, Макар Кусакин, Эрик Яралов
О фильме: 1926 год. Разгар НЭПа. Новгородский жулик Подкидыш, убегая от местных бандитов, попадает в Ленинград. Сотрудники милиции по ошибке принимают его за известного сыщика, которого недавно назначили начальником отдела УГРО. Подкидыш планирует незаметно исчезнуть, но, узнав, что в городе есть большой склад дорогих улик и экспроприированных вещей, решает не торопиться. Ограбить помещение, имея на руках удостоверение милиционера, довольно легко, и преступник продумывает похищение…

Качество: WEB-DLRip
Видео: XviD build 73, 720x400 (16:9), 25.000 fps, ~ 1360 Kbps (~ 0.190 bit/pixel)
Аудио: 48.0 kHz, AC3, 2/0 ch, 192 kbps
Продолжительность: 12 x ~ 00:50:00
Перевод / Озвучка: Не требуется [Русский]
Cубтитры: нет

Скриншоты

MediaInfo

General
Complete name : D:\Razdachi\Podkidysh.2019.WEB-DLRip.GeneralFilm\Podkidysh.e01.avi
Format : AVI
Format/Info : Audio Video Interleave
File size : 558 MiB
Duration : 49 min 41 s
Overall bit rate : 1 569 kb/s
Writing application : VirtualDubMod 1.5.10.3 | www.virtualdub-fr.org || (build 2550/release)
Writing library : VirtualDubMod build 2550/release
Video
ID : 0
Format : MPEG-4 Visual
Format profile : Advanced Simple@L5
Format settings : BVOP1 / Custom Matrix
Format settings, BVOP : 1
Format settings, QPel : No
Format settings, GMC : No warppoints
Format settings, Matrix : Custom
Codec ID : XVID
Codec ID/Hint : XviD
Duration : 49 min 41 s
Bit rate : 1 367 kb/s
Width : 720 pixels
Height : 400 pixels
Display aspect ratio : 16:9
Frame rate : 25.000 FPS
Color space : YUV
Chroma subsampling : 4:2:0
Bit depth : 8 bits
Scan type : Progressive
Compression mode : Lossy
Bits/(Pixel*Frame) : 0.190
Stream size : 486 MiB (87%)
Writing library : XviD 73
Audio
ID : 1
Format : AC-3
Format/Info : Audio Coding 3
Commercial name : Dolby Digital
Codec ID : 2000
Duration : 49 min 41 s
Bit rate mode : Constant
Bit rate : 192 kb/s
Channel(s) : 2 channels
Channel layout : L R
Sampling rate : 48.0 kHz
Frame rate : 31.250 FPS (1536 SPF)
Bit depth : 16 bits
Compression mode : Lossy
Stream size : 68.2 MiB (12%)
Alignment : Split accross interleaves
Interleave, duration : 40 ms (1.00 video frame)
Interleave, preload duratio : 500 ms
Service kind : Complete Main
Релиз от:
[Profile] [PM]
Display posts:    
Reply to topic

Current time is: 24-Apr 03:09

All times are UTC + 3



You cannot post new topics in this forum
You cannot reply to topics in this forum
You cannot edit your posts in this forum
You cannot delete your posts in this forum
You cannot vote in polls in this forum
You cannot attach files in this forum
You cannot download files in this forum