Укрощение свекрови (2019) WEBRip от Files-x

Reply to topic
 
Author Message

papa1951deda ®

Gender: Male

Longevity: 11 months

Posts: 384

Location: Казахстан

Post 01-May-2019 19:11

[Quote]

Укрощение свекрови Год выпуска: 2019
Жанр: Комедия
Выпущено: Россия, Арт-Экспресс
Режиссер: Владимир Басов мл., Ольга Басова
В ролях: Елена Валюшкина, Елизавета Арзамасова, Артём Крылов, Кристина Бабушкина, Владимир Стержаков, Теймураз Тания, Алексей Шевченков, Александра Скачкова, Александр Сотников, Владимир Басов (младший), Алексей Травкин, Сабина Аскарова, Дарья Филиппова (II), Мария Притыка, Максим Казаков
О фильме: Инга и Андрей были бы самой счастливой парой, если бы не одно «но». Мама! А точнее Анна Михайловна — невыносимая свекровь и домашний тиран. Жить в отдельной квартире у молодых супругов никак не получается — мама требует бесконечного внимания и заботы. А поскольку у мамы больное сердце, Андрей потакает всем ее капризам. И конечно, невестку «мама» не переносит. Однажды измученной Инге приходит в голову идея, как раз и навсегда укротить свекровь: ведь все познается в сравнении. И Инга решает… найти себе замену. Причем замену ужасающую — с тремя детьми и бывшим мужем-уголовником. Сыграть новую избранницу Андрея должна будет тетка Инги — Алиса. Однако все идет не по плану…
Качество: WEBRip
Видео: XviD, ~ 1600 Кбит/с, 720x400, 25 кадр/с
Аудио: AC3, 2 ch, 192 Кбит/с
Продолжительность: 01:41:22
Перевод: Не требуется

Скриншоты


MediaInfo

General
Complete name : D:\моё видио\Укрощение свекрови.2019.WEB-DLRip. Files-x.avi
Format : AVI
Format/Info : Audio Video Interleave
File size : 1.37 GiB
Duration : 1h 42mn
Overall bit rate : 1 926 Kbps
Writing application : VirtualDubMod 1.5.10.3 | www.virtualdub-fr.org || (build 2550/release)
Writing library : VirtualDubMod build 2550/release
Video
ID : 0
Format : MPEG-4 Visual
Format profile : Advanced Simple@L5
Format settings, BVOP : 1
Format settings, QPel : No
Format settings, GMC : No warppoints
Format settings, Matrix : Custom
Codec ID : XVID
Codec ID/Hint : XviD
Duration : 1h 42mn
Bit rate : 1 724 Kbps
Width : 720 pixels
Height : 400 pixels
Display aspect ratio : 16:9
Frame rate : 25.000 fps
Color space : YUV
Chroma subsampling : 4:2:0
Bit depth : 8 bits
Scan type : Progressive
Compression mode : Lossy
Bits/(Pixel*Frame) : 0.239
Stream size : 1.23 GiB (90%)
Writing library : XviD 73
Audio
ID : 1
Format : AC-3
Format/Info : Audio Coding 3
Mode extension : CM (complete main)
Format settings, Endianness : Big
Codec ID : 2000
Duration : 1h 42mn
Bit rate mode : Constant
Bit rate : 192 Kbps
Channel(s) : 2 channels
Channel positions : Front: L R
Sampling rate : 48.0 KHz
Bit depth : 16 bits
Compression mode : Lossy
Stream size : 140 MiB (10%)
Alignment : Split accross interleaves
Interleave, duration : 40 ms (1.00 video frame)
Interleave, preload duration : 500 ms
Релиз от:
[Profile] [PM]
Display posts:    
Reply to topic

Current time is: 20-Nov 05:43

All times are UTC + 3



You cannot post new topics in this forum
You cannot reply to topics in this forum
You cannot edit your posts in this forum
You cannot delete your posts in this forum
You cannot vote in polls in this forum
You cannot attach files in this forum
You cannot download files in this forum