Чернобыль / Chernobyl [1 сезон: 1-5 серии из 5] (2019) WEB-DLRip-AVC от GeneralFilm | Amedia

Reply to topic
 
Author Message

olegka7373 ®

Gender: Male

Longevity: 9 months 5 days

Posts: 178

Location: Россия, Новокузнецк

Post 08-May-2019 13:03

[Quote]

Чернобыль
Год выпуска: 2019
Жанр: Драма, история
Выпущено: Великобритания, США, Home Box Office (HBO), Sky Television
Режиссер: Йохан Ренк
В ролях: Эмили Уотсон, Стеллан Скарсгорд, Джаред Харрис, Пол Риттер, Джесси Бакли, Адриан Роулинз, Кон О'Нилл, Сэм Тротон, Адам Нагаитис, Барри Кеоган, Ралф Айнесон, Марк Льюис Джоунс, Фарес Фарес, Дэвид Денсик, Джошуа Лиз, Росс Армстронг, Фил Барантини, Билли Постлтуэйт, Джей Симпсон, Дагги Макмикин, Джеймс Космо, Карл Дэвис, Джерард Кернс, Кирэн О'Брайен, Джейми Сивес, Майкл Соча
О фильме: История об аварии на Чернобыльской АЭС в 1986 году, эвакуации жителей Припяти и ликвидации последствий. «Чернобыль» драматизирует истинную историю одной из худших техногенных катастроф в истории и рассказывает о храбрых мужчинах и женщинах, которые пожертвовали собой, чтобы спасти Европу от невообразимой катастрофы.

Качество: WEB-DLRip-AVC
Видео: MPEG-4 AVC, ~ 2000 Кбит/с, 1024х512, 23,976 кадр/с
Аудио: AC3, 2 ch, 192 Кбит/с
Продолжительность: 5 x ~ 01:00:00
Перевод: Профессиональный (многоголосый, закадровый) Novamedia по заказу Amedia
Субтитры: нет

Скриншоты


MediaInfo

Общее
Уникальный идентификатор : 174781599694391319075176715282311793352 (0x837DB62F36DCAF9BB0910F5AF73FCAC8)
Полное имя : D:\Chernobyl.S01.WEB-DLRip.(AVC).GeneralFilm\01.Chernobyl.S01.WEB-DLRip.(AVC).GeneralFilm.mkv
Формат : Matroska
Версия формата : Version 2
Размер файла : 923 Мбайт
Продолжительность : 58 м. 51 с.
Общий поток : 2193 Кбит/сек
Дата кодирования : UTC 2019-05-08 04:50:12
Программа кодирования : mkvmerge v7.8.0 ('River Man') 32bit built on Apr 3 2015 12:11:22
Библиотека кодирования : libebml v1.3.1 + libmatroska v1.4.2
Видео
Идентификатор : 1
Формат : AVC
Формат/Информация : Advanced Video Codec
Профиль формата : High@L4.1
Параметр CABAC формата : Да
Параметр ReFrames формата : 9 кадров
Идентификатор кодека : V_MPEG4/ISO/AVC
Продолжительность : 58 м. 51 с.
Битрейт : 2000 Кбит/сек
Ширина : 1024 пикселя
Высота : 512 пикселей
Соотношение сторон : 2,000
Режим частоты кадров : Постоянный
Частота кадров : 23,976 (24000/1001) кадра/сек
Цветовое пространство : YUV
Субдискретизация насыщенности : 4:2:0
Битовая глубина : 8 бит
Тип развёртки : Прогрессивная
Бит/(Пиксели*Кадры) : 0.159
Размер потока : 824 Мбайт (89%)
Библиотека кодирования : x264 core 146 r2538 121396c
Настройки программы : cabac=1 / ref=9 / deblock=1:-2:-1 / analyse=0x3:0x113 / me=umh / subme=9 / psy=1 / psy_rd=1.00:0.15 / mixed_ref=1 / me_range=32 / chroma_me=1 / trellis=2 / 8x8dct=1 / cqm=0 / deadzone=21,11 / fast_pskip=0 / chroma_qp_offset=-3 / threads=18 / lookahead_threads=3 / sliced_threads=0 / nr=0 / decimate=1 / interlaced=0 / bluray_compat=0 / constrained_intra=0 / bframes=9 / b_pyramid=2 / b_adapt=2 / b_bias=0 / direct=1 / weightb=1 / open_gop=0 / weightp=2 / keyint=250 / keyint_min=23 / scenecut=40 / intra_refresh=0 / rc_lookahead=40 / rc=2pass / mbtree=0 / bitrate=2000 / ratetol=1.0 / qcomp=0.60 / qpmin=0 / qpmax=69 / qpstep=4 / cplxblur=20.0 / qblur=0.5 / vbv_maxrate=14000 / vbv_bufsize=14000 / nal_hrd=none / filler=0 / ip_ratio=1.40 / pb_ratio=1.30 / aq=2:1.00
Default : Да
Forced : Нет
Цветовой диапазон : Limited
Основные цвета : BT.709
Характеристики трансфера : BT.709
Коэффициенты матрицы : BT.709
Аудио
Идентификатор : 2
Формат : AC-3
Формат/Информация : Audio Coding 3
Расширение режима : CM (complete main)
Параметр Endianness формата : Big
Идентификатор кодека : A_AC3
Продолжительность : 58 м. 51 с.
Вид битрейта : Постоянный
Битрейт : 192 Кбит/сек
Каналы : 2 канала
Расположение каналов : Front: L R
Частота : 48,0 КГц
Частота кадров : 31,250 кадров/сек (1536 spf)
Битовая глубина : 16 бит
Метод сжатия : С потерями
Размер потока : 80,8 Мбайт (9%)
Default : Да
Forced : Нет
Общее
Полное имя : D:\Chernobyl.S01.WEB-DLRip.(AVC).GeneralFilm\Chernobyl.S01.WEB-DLRip.(AVC).GeneralFilm.torrent
Размер файла : 18,5 Кбайт
Релиз:


Last edited by olegka7373 on 2019-05-21 13:57; edited 4 times in total
[Profile] [PM]
Display posts:    
Reply to topic

Current time is: 18-Aug 20:53

All times are UTC + 3



You cannot post new topics in this forum
You cannot reply to topics in this forum
You cannot edit your posts in this forum
You cannot delete your posts in this forum
You cannot vote in polls in this forum
You cannot attach files in this forum
You cannot download files in this forum