Последняя неделя [1-8 серия из 8] (2019) HDTV 1080p от Generalfilm

Reply to topic
 
Author Message

White Smoke ®

Gender: Male

Longevity: 6 months 10 days

Posts: 63

Post 14-May-2019 12:52

[Quote]

Последняя неделя Год выпуска: 2019
Жанр: Мелодрама
Выпущено: Россия Атлантик Продакшн, Кинокомпания Дерево
Режиссер: Павел Мальков
В ролях: Мария Скуратова, Евгений Сидихин, Светлана Антонова, Олег Алмазов, Андрей Финягин, Алексей Шильников, Надежда Мельникова
О фильме: Люба и Сергей были любящей и успешной парой кардиохирургов. Сергей занимался изобретением искусственного сердца и мечтал изменить жизни миллионов людей. Люба же оставалась на вторых ролях, но при этом была счастлива – она всегда чувствовала себя рядом с мужем в безопасности. Так было, пока в автокатастрофе не погибла их дочь. После смерти девочки супруги развелись.
Качество: HDTV 1080p
Видео: AVC, 1920x1080 (16:9), 7050 kbps, 25 fps, 0,136 bpp
Аудио: AC3 / 2.0 / 48.0 kHz / 192 kbps
Продолжительность: 00:52:30
Перевод / Озвучка: Не требуется
Cубтитры: нет

Скриншоты




MediaInfo

General
Unique ID : 238012862667533948471392807013098956472 (0xB30F9C24C53E62519DA136B73F87A6B8)
Complete name : E:\Запись с тв\Poslednjaja nedelja 2019 HDTV 1080p.R.G.Generalfilm\Poslednjaja nedelja.s01.e02.2019.HDTV 1080p.by.White Smoke.R.G.Generalfilm.mkv
Format : Matroska
Format version : Version 4 / Version 2
File size : 2.65 GiB
Duration : 52 min 30 s
Overall bit rate mode : Constant
Overall bit rate : 7 218 kb/s
Movie name : Poslednjaja nedelja.s01.e02.2019.HDTV 1080p.by.White Smoke.R.G.Generalfilm.mkv
Encoded date : UTC 2019-05-14 08:22:12
Writing application : mkvmerge v6.8.0 ('Theme for Great Cities') 64bit built on Mar 2 2014 21:34:26
Writing library : libebml v1.3.0 + libmatroska v1.4.1
Cover : Yes
Attachments : cover.jpg
Video
ID : 1
Format : AVC
Format/Info : Advanced Video Codec
Format profile : High@L4.1
Format settings : CABAC / 3 Ref Frames
Format settings, CABAC : Yes
Format settings, ReFrames : 3 frames
Format settings, GOP : M=3, N=33
Codec ID : V_MPEG4/ISO/AVC
Duration : 52 min 30 s
Bit rate mode : Constant
Bit rate : 7 051 kb/s
Width : 1 920 pixels
Height : 1 080 pixels
Display aspect ratio : 16:9
Frame rate mode : Constant
Frame rate : 25.000 FPS
Standard : PAL
Color space : YUV
Chroma subsampling : 4:2:0
Bit depth : 8 bits
Scan type : Progressive
Bits/(Pixel*Frame) : 0.136
Stream size : 2.52 GiB (95%)
Default : No
Forced : No
Color range : Limited
Color primaries : BT.709
Transfer characteristics : BT.709
Matrix coefficients : BT.709
Audio
ID : 2
Format : AC-3
Format/Info : Audio Coding 3
Commercial name : Dolby Digital
Codec ID : A_AC3
Duration : 52 min 30 s
Bit rate mode : Constant
Bit rate : 192 kb/s
Channel(s) : 2 channels
Channel layout : L R
Sampling rate : 48.0 kHz
Frame rate : 31.250 FPS (1536 SPF)
Bit depth : 16 bits
Compression mode : Lossy
Stream size : 72.1 MiB (3%)
Service kind : Complete Main
Default : Yes
Forced : No
Релиз от: Огромное спасибо пользователю Starik60 за помощь в записи для данной раздачи


Last edited by White Smoke on 2019-05-18 12:03; edited 4 times in total
[Profile] [PM]

White Smoke ®

Gender: Male

Longevity: 6 months 10 days

Posts: 63

Post 18-May-2019 12:04 (after 3 days)

[Quote]

Финал сезона
[Profile] [PM]
Display posts:    
Reply to topic

Current time is: 23-May 14:52

All times are UTC + 3



You cannot post new topics in this forum
You cannot reply to topics in this forum
You cannot edit your posts in this forum
You cannot delete your posts in this forum
You cannot vote in polls in this forum
You cannot attach files in this forum
You cannot download files in this forum