И Ниночка снимает свои штанишки / Auch Ninotschka zieht ihr Höschen aus (Auch Ninotschka zieht ihr Höschen) (1973) DVDRip

Reply to topic
 
Author Message

Шкипер ®

Longevity: 10 months 17 days

Posts: 2

Post 14-May-2019 16:21

[Quote]

И Ниночка снимает свои штанишки
Auch Ninotschka zieht ihr Höschen aus (Auch Ninotschka zieht ihr Höschen)
Год выпуска: 1973
Жанр: Комедия, эротика
Выпущено: Германия (ФРГ)
Режиссер: Клаус Тинней
В ролях: Ринальдо Таламонти, Эльма Карлова, Франц Мюксенедер, Юрген Файндт, Эрих Падалевски, Бритт Корвин, Александра Богоджевич, Кристина Ванка, Элизабет Фолькманн, Карин Хеск
О фильме: Партия направляет Петра Чехова вместе с тремя передовицами труда на выставку в Мюнхен, чтобы продать предлагаемые Советским Союзом товары: меха, икру, водку и племенных свиней. Однако по прибытии на вокзал советскую делегацию принимают за направлявшихся в фешенебельный бордель мадам Меди девушек известного сутенера Фреда Хубера. Попав в публичный дом советские комсомолки вместе со своим энергичным руководителем нисколько не растерялись и быстро завоевали симпатии взыскательной публики. А вот подопечным Хубера, вынужденным занять места на выставочном стенде, пришлось гораздо тяжелее…
Качество: DVDRip
Видео: 640x368 (1.74:1), 25 fps, XviD build 73 ~1198 kbps avg, 0.20 bit/pixel
Аудио: 48 kHz, MPEG Layer 3, 2 ch, ~128.00 kbps avg
Продолжительность: 01:17:55
Перевод / Озвучка: Авторский Дольский
Cубтитры: нет

Скриншоты

MediaInfo

General
Complete name : D:\Ниночка снимает свои штанишки DVDRip by ExKinoRay & Shkiper.avi
Format : AVI
Format/Info : Audio Video Interleave
File size : 744 MiB
Duration : 1 h 17 min
Overall bit rate : 1 336 kb/s
Writing application : VirtualDubMod 1.5.10.3 | www.virtualdub-fr.org || (build 2550/release)
Writing library : VirtualDubMod build 2550/release
Video
ID : 0
Format : MPEG-4 Visual
Format profile : Advanced Simple@L5
Format settings : BVOP1 / Custom Matrix
Format settings, BVOP : 1
Format settings, QPel : No
Format settings, GMC : No warppoints
Format settings, Matrix : Custom
Codec ID : XVID
Codec ID/Hint : XviD
Duration : 1 h 17 min
Bit rate : 1 198 kb/s
Width : 640 pixels
Height : 368 pixels
Display aspect ratio : 1.739
Frame rate : 25.000 FPS
Color space : YUV
Chroma subsampling : 4:2:0
Bit depth : 8 bits
Scan type : Progressive
Compression mode : Lossy
Bits/(Pixel*Frame) : 0.203
Stream size : 668 MiB (90%)
Writing library : XviD 73
Audio
ID : 1
Format : MPEG Audio
Format version : Version 1
Format profile : Layer 3
Codec ID : 55
Codec ID/Hint : MP3
Duration : 1 h 17 min
Bit rate mode : Constant
Bit rate : 128 kb/s
Channel(s) : 2 channels
Sampling rate : 48.0 kHz
Frame rate : 41.667 FPS (1152 SPF)
Compression mode : Lossy
Stream size : 71.3 MiB (10%)
Alignment : Aligned on interleaves
Interleave, duration : 40 ms (1.00 video frame)
Interleave, preload duratio : 504 ms
Writing library : LAME3.99r
Encoding settings : -m s -V 4 -q 2 -lowpass 17 -b 128
Релиз от:
[Profile] [PM]
Display posts:    
Reply to topic

Current time is: 12-Nov 17:00

All times are UTC + 3



You cannot post new topics in this forum
You cannot reply to topics in this forum
You cannot edit your posts in this forum
You cannot delete your posts in this forum
You cannot vote in polls in this forum
You cannot attach files in this forum
You cannot download files in this forum