Смотритель маяка [1-12 серии из 12] (2018) WEBRip от GeneralFilm

Reply to topic
 
Author Message

olegka7373 ®

Gender: Male

Longevity: 7 months 12 days

Posts: 147

Location: Россия, Новокузнецк

Post 12-Jun-2019 11:23

[Quote]

Смотритель маяка
Год выпуска: 2018
Жанр: Детектив, шпионский фильм
Выпущено: Россия, Киностудия КИТ
Режиссер: Павел Дроздов
В ролях: Егор Бероев, Максим Дрозд, Екатерина Ванчугова, Виктор Тереля, Александра Богданова, Игорь Хрипунов, Василий Мищенко, Константин Снегов, Игорь Климов, Константин Адаев, Игорь Лебедев, Александр Волженский, Дмитрий Харатьян, Роман Пылаев, Михаил Сопов, Александр Богданов (II), Александр Коваль (IV), Вадим Цаллати, Алексей Марков, Вячеслав Гостищев, Сергей Голотвин, Юрий Алехин, А. Василенко, Алёна Гудкова, Роман Гайдамак, Ольга Сопова, Екатерина Архарова
О фильме: 1914 год, канун Первой мировой войны. Русская контрразведка узнает о предстоящей крупной диверсии в Kрыму. Немецкий шпион собирается заминировать Севастопольскую бухту, уничтожить главные силы русского флота и открыть путь для немецко-турецкого десанта. Для выполнения задания он использует завербованных русских из самых разных слоев — от офицеров до уголовников. Один из них, Арсений Седов, становится другом шпиона Петра Ремезова. Враг не подозревает, что Арсений на самом деле разведчик Генерального Штаба.

Качество: WEBRip
Видео: XviD, ~ 1550 Кбит/с, 720х304, 25 кадр/с
Аудио: Русский (AC3, 2 ch, 192 Кбит/с)
Продолжительность: 12 х ~ 00:48:00
Перевод: Не требуется
Субтитры: нет

Скриншоты


MediaInfo

Общее
Полное имя : D:Smotritel majaka.WEBRip.GeneralFilm1.Smotritel majaka.WEBRip.GeneralFilm.avi
Формат : AVI
Формат/Информация : Audio Video Interleave
Размер файла : 600 Мбайт
Продолжительность : 48 м. 21 с.
Общий поток : 1734 Кбит/сек
Программа кодирования : VirtualDubMod 1.5.10.3 | www.virtualdub-fr.org || (build 2550/release)
Библиотека кодирования : VirtualDubMod build 2550/release
Видео
Идентификатор : 0
Формат : MPEG-4 Visual
Профиль формата : Advanced Simple@L5
Параметр BVOP формата : 1
Параметр QPel формата : Нет
Параметр GMC формата : Без точки перехода
Параметр матрицы формата : Выборочная
Идентификатор кодека : XVID
Идентификатор кодека/Подсказка : XviD
Продолжительность : 48 м. 21 с.
Битрейт : 1533 Кбит/сек
Ширина : 720 пикселей
Высота : 304 пикселя
Соотношение сторон : 2,35:1
Частота кадров : 25,000 кадров/сек
Цветовое пространство : YUV
Субдискретизация насыщенности : 4:2:0
Битовая глубина : 8 бит
Тип развёртки : Прогрессивная
Метод сжатия : С потерями
Бит/(Пиксели*Кадры) : 0.280
Размер потока : 530 Мбайт (88%)
Библиотека кодирования : XviD 1.2.1 (UTC 2008-12-04)
Аудио
Идентификатор : 1
Формат : AC-3
Формат/Информация : Audio Coding 3
Расширение режима : CM (complete main)
Параметр Endianness формата : Big
Идентификатор кодека : 2000
Продолжительность : 48 м. 21 с.
Вид битрейта : Постоянный
Битрейт : 192 Кбит/сек
Каналы : 2 канала
Расположение каналов : Front: L R
Частота : 48,0 КГц
Частота кадров : 31,250 кадров/сек (1536 spf)
Битовая глубина : 16 бит
Метод сжатия : С потерями
Размер потока : 66,4 Мбайт (11%)
Выравнивание : Разделение по промежуткам
Продолжительность промежутка : 40 мс. (1,00 видеокадр)
Время предзагрузки промежутка : 500 мс.
Общее
Полное имя : D:Smotritel majaka.WEBRip.GeneralFilmSmotritel majaka.WEBRip.GeneralFilm.torrent
Размер файла : 12,2 Кбайт

Внимание! Раздача ведётся путём добавления новых серий

Раздача ведётся путём добавления новых серий, при каждом добавлении создаётся новый торрент. Чтобы начать докачку новой серии, пользователям необходимо сделать следующее:
- Остановить скачивание.
- Удалить старый торрент у себя из клиента (старые серии удалять не надо).
- Скачать новый торрент и запустить его у себя в клиенте вместо старого, при этом указать клиенту путь в старую папку куда и должно происходить скачивание новых серий.
Ваш клиент при этом должен произвести хеширование (проверку) старой папки (если не производит сам - помогите ему сделать это), и будет докачивать только те серии которых у вас ещё нет. Старые серии при этом не удаляются, а продолжают раздаваться!
Если вы уже удалили старые серии, то предотвратить повторную закачку старых серий можно, отжав галочку в соответствующих местах при запуске нового торрента. По возможности, желательно не удалять старые серии как можно дольше, чтобы релизер не столько продолжал раздавать старые серии, а смог сконцентрироваться на новых.
Релиз:
[Profile] [PM]
Display posts:    
Reply to topic

Current time is: 26-Jun 00:47

All times are UTC + 3



You cannot post new topics in this forum
You cannot reply to topics in this forum
You cannot edit your posts in this forum
You cannot delete your posts in this forum
You cannot vote in polls in this forum
You cannot attach files in this forum
You cannot download files in this forum