Ангел-хранитель [1-16 серии из 16] (2019) HDTVRip-AVC от Files-x

Reply to topic
 
Author Message

Серый1779 ®

Gender: Male

Longevity: 8 months 8 days

Posts: 494

Location: Украина

Post 17-Jun-2019 23:19

[Quote]

Ангел-хранитель
Год выпуска: 2019
Жанр: Мелодрама
Выпущено: Россия, Фаворит-фильм
Режиссер: Максим Демченко
В ролях: Ольга Павловец, Владимир Гостюхин, Алексей Шевченков, Анна Вартанян, Ирина Шевчук, Дмитрий Щербина, Виктор Добронравов, Ангелина Стречина, Алексей Демидов, Софья Ардова, Анатолий Кот, Александра Афанасьева-Шевчук, Юлия Галкина, Артур Иванов, Любовь Хацкевич, Юлия Кудояр, Юрий Кузнецов-Таёжный, Максим Литовченко, Иван Соловьёв (III), Анастасия Уколова, Алексей Фатеев
О фильме: В подмосковном селе и усадьбе Ангелово живут две семьи. У профессора Ангелова три дочери: Лида, Вера и Надя, у крестьянина Тимофея Кондратьева три сына: Фёдор, Степан и Павел. 1917 год круто меняет все вокруг. В первом же «классовом» столкновении гибнут и Ангелов, и Кондратьев. Их дети проживают собственную жизнь в соответствии со своей удачей, наклонностями и возможностями: кто-то оказывается в Париже, кто-то в ГУЛАГе, а кому-то суждено стать хранителем родового гнезда. Детские влюбленности оборачиваются то единственным на всю жизнь чувством, то горькой печалью от неразделенной любви. Появляется второе и третье поколение семей Ангеловых и Кондратьевых, и разброс человеческих судеб становится еще шире, превращаясь в захватывающую семейную сагу. Рядом с людьми постоянно присутствуют два оберега: Ангел-хранитель и Волк-оборотень, которые время от времени остерегают или направляют героев на те или иные поступки....

Качество: HDTVRip-AVC
Видео: MPEG-4 AVC, ~ 2000 Кбит/с, 1024x576, 25 кадр/с
Аудио: AC3, 2 ch, 192 Кбит/с
Продолжительность: 16 x ~ 00:51:00
Перевод: Не требуется
Субтитры: нет

Скриншоты


MediaInfo

General
Unique ID : 199220073806969152997247234113478812851 (0x95E063FC2F5C20C7A8D93A51F6B764B3)
Complete name : F:\Angel hranitel.(2019).HDTVRip.(AVC).Files-x\01.Angel hranitel.HDTVRip.(AVC).by.Серый1779.Files-x.mkv
Format : Matroska
Format version : Version 2
File size : 818 MiB
Duration : 52 min 10 s
Overall bit rate : 2 193 kb/s
Encoded date : UTC 2019-06-17 18:12:19
Writing application : mkvmerge v7.8.0 ('River Man') 32bit built on Apr 3 2015 12:11:22
Writing library : libebml v1.3.1 + libmatroska v1.4.2
Video
ID : 1
Format : AVC
Format/Info : Advanced Video Codec
Format profile : High@L4.1
Format settings : CABAC / 9 Ref Frames
Format settings, CABAC : Yes
Format settings, RefFrames : 9 frames
Codec ID : V_MPEG4/ISO/AVC
Duration : 52 min 10 s
Bit rate : 2 000 kb/s
Width : 1 024 pixels
Height : 576 pixels
Display aspect ratio : 16:9
Frame rate mode : Constant
Frame rate : 25.000 FPS
Color space : YUV
Chroma subsampling : 4:2:0
Bit depth : 8 bits
Scan type : Progressive
Bits/(Pixel*Frame) : 0.136
Stream size : 730 MiB (89%)
Writing library : x264 core 146 r2538 121396c
Encoding settings : cabac=1 / ref=9 / deblock=1:-2:-1 / analyse=0x3:0x133 / me=umh / subme=9 / psy=1 / psy_rd=1.00:0.15 / mixed_ref=1 / me_range=32 / chroma_me=1 / trellis=2 / 8x8dct=1 / cqm=0 / deadzone=21,11 / fast_pskip=0 / chroma_qp_offset=-3 / threads=18 / lookahead_threads=3 / sliced_threads=0 / nr=0 / decimate=1 / interlaced=0 / bluray_compat=0 / constrained_intra=0 / bframes=9 / b_pyramid=2 / b_adapt=2 / b_bias=0 / direct=1 / weightb=1 / open_gop=0 / weightp=2 / keyint=250 / keyint_min=25 / scenecut=40 / intra_refresh=0 / rc=2pass / mbtree=0 / bitrate=2000 / ratetol=1.0 / qcomp=0.60 / qpmin=0 / qpmax=69 / qpstep=4 / cplxblur=20.0 / qblur=0.5 / ip_ratio=1.40 / pb_ratio=1.30 / aq=2:1.00
Default : Yes
Forced : No
Color range : Limited
Color primaries : BT.709
Transfer characteristics : BT.709
Matrix coefficients : BT.709
Audio
ID : 2
Format : AC-3
Format/Info : Audio Coding 3
Format settings, Endianness : Big
Codec ID : A_AC3
Duration : 52 min 10 s
Bit rate mode : Constant
Bit rate : 192 kb/s
Channel(s) : 2 channels
Channel positions : Front: L R
Sampling rate : 48.0 kHz
Frame rate : 31.250 FPS (1536 SPF)
Bit depth : 16 bits
Compression mode : Lossy
Stream size : 71.6 MiB (9%)
Service kind : Complete Main
Default : Yes
Forced : No

Внимание! Раздача ведётся путём добавления новых серий

Раздача ведётся путём добавления новых серий, при каждом добавлении создаётся новый торрент. Чтобы начать докачку новой серии, пользователям необходимо сделать следующее:
- Остановить скачивание.
- Удалить старый торрент у себя из клиента (старые серии удалять не надо).
- Скачать новый торрент и запустить его у себя в клиенте вместо старого, при этом указать клиенту путь в старую папку куда и должно происходить скачивание новых серий.
Ваш клиент при этом должен произвести хеширование (проверку) старой папки (если не производит сам - помогите ему сделать это), и будет докачивать только те серии которых у вас ещё нет. Старые серии при этом не удаляются, а продолжают раздаваться!
Если вы уже удалили старые серии, то предотвратить повторную закачку старых серий можно, отжав галочку в соответствующих местах при запуске нового торрента. По возможности, желательно не удалять старые серии как можно дольше, чтобы релизер не столько продолжал раздавать старые серии, а смог сконцентрироваться на новых.
Релиз от:
[Profile] [PM]
Display posts:    
Reply to topic

Current time is: 21-Jul 12:07

All times are UTC + 3



You cannot post new topics in this forum
You cannot reply to topics in this forum
You cannot edit your posts in this forum
You cannot delete your posts in this forum
You cannot vote in polls in this forum
You cannot attach files in this forum
You cannot download files in this forum