The Rolling Stones - GRRR Live! (2023) [HEVC] BDRip 1080p

Reply to topic
 
Author Message

sebhort ®

Gender: Male

Longevity: 2 years 8 months

Posts: 4472

Post 06-Mar-2023 09:21

[Quote]

The Rolling Stones - GRRR Live! Год выпуска: 2023
Жанр: Музыка, rock
Выпущено: США
О фильме: Очередной концертный Blu-Ray от монстров рока The Rolling Stones под названием GRRR Live! (Live At Newark 2012). Запись была сделана во время юбилейного тура группы "50 and counting" в 2012 году в Ньюарке, штат Нью-Джерси, и была заново отредактирована и ремикширована, в том числе в формате Dolby Atmos. The Rolling Stones отпраздновали свои золотые дни рождения в 2012 и 2013 годах, отправившись в тур «50 & Counting» с 30 концертами в Северной Америке и Европе. 15 декабря 2012 года группа выступила в Prudential Center в Ньюарке, штат Нью-Джерси. В тот вечер пришли 27 000 счастливчиков - небольшая, почти клубная толпа по меркам группы - к ним присоединились миллионы зрителей, наблюдавших за трансляцией по всей территории Соединённых Штатов. Им предстояло стать свидетелями не только показа ослепительной напористости и мастерства величайших представителей искусства, но и нескольких гостевых выступлений, о которых говорят и сегодня. Полная версия проекта "GRRR Live!" представлена невероятным составом гостей, поддерживающих группу - The Black Keys, Гэри Кларк младший, Леди Гага, Джон Майер, Брюс Спрингстин и Мик Тейлор.
Качество: BDRip HEVC 1080p
Видео: HEVC, 15,2 Мбит/сек, 1920x1080 (16:9), 23,976 кадр/с
Аудио 1: TrueHD, 8 ch, 6100 Kbps - Английский (Dolby TrueHD with Dolby Atmos 7.1)
Аудио2: DTS-HD MA, 6 ch, 4768 Kbps - Английский (DTS-HD Master Audio 5.1)
Аудио3: PCM, 2 ch, 2304 Kbps - Английский (PCM 2.0)
Продолжительность: 02:22:03
Перевод / Озвучка: Перевод отсутствует [Оригинал]
Cубтитры: нет

Трэклист

01. Get Off My Cloud
02. The Last Time
03. It s Only Rock n Roll (But I Like It)
04. Paint It Black
05. Gimme Shelter (with Lady Gaga)
06. Wild Horses
07. Going Down (with John Mayer and Gary Clark Jr.)
08. Dead Flowers
09. Who Do You Love? (with The Black Keys)
10. Doom And Gloom
11. One More Shot
12. Miss You
13. Honky Tonk Women
14. Before They Make Me Run
15. Happy
16. Midnight Rambler (with Mick Taylor)
17. Start Me Up
18. Tumbling Dice (with Bruce Springsteen)
19. Brown Sugar
20. Sympathy For The Devil
21. You Can t Always Get What You Want
22. Jumpin Jack Flash
23. (I Can t Get No) Satisfaction

Скриншоты


MediaInfo

Общее
Уникальный идентификатор : 34557843116909342943968748090502049773 (0x19FF9936758480607F323FFF03526FED)
Полное имя : \\.\The.Rolling.Stones.Grrr.Live!.2012.BDRip-HEVC.1080p.mkv
Формат : Matroska
Версия формата : Version 4
Размер файла : 28,2 Гбайт
Продолжительность : 2 ч. 22 м.
Режим общего битрейта : Переменный
Общий поток : 28,5 Мбит/сек
Дата кодирования : UTC 2023-03-05 08:15:00
Программа кодирования : mkvmerge v74.0.0 ('You Oughta Know') 64-bit
Библиотека кодирования : libebml v1.4.4 + libmatroska v1.7.1
Обложка : Yes
Attachments : cover.jpg
Видео
Идентификатор : 1
Формат : HEVC
Формат/Информация : High Efficiency Video Coding
Профиль формата : Main 10@L4.1@High
Идентификатор кодека : V_MPEGH/ISO/HEVC
Продолжительность : 2 ч. 22 м.
Битрейт : 15,2 Мбит/сек
Ширина : 1 920 пикселей
Высота : 1 080 пикселей
Соотношение сторон : 16:9
Режим частоты кадров : Постоянный
Частота кадров : 23,976 (24000/1001) кадра/сек
Цветовое пространство : YUV
Субдискретизация насыщенности : 4:2:0
Битовая глубина : 10 бит
Бит/(Пиксели*Кадры) : 0.306
Размер потока : 15,1 Гбайт (53%)
Заголовок : The Rolling Stones - GRRR Live / Rip by OldGamer
Библиотека кодирования : x265 3.5+86-6da609e41:[Windows][GCC 12.2.0][64 bit] 10bit
Настройки программы : cpuid=1111039 / frame-threads=4 / numa-pools=16 / wpp / no-pmode / no-pme / no-psnr / no-ssim / log-level=2 / input-csp=1 / input-res=1920x1080 / interlace=0 / total-frames=204362 / level-idc=41 / high-tier=1 / uhd-bd=0 / ref=5 / no-allow-non-conformance / no-repeat-headers / annexb / no-aud / no-eob / no-eos / no-hrd / info / hash=0 / temporal-layers=0 / open-gop / min-keyint=23 / keyint=240 / gop-lookahead=0 / bframes=16 / b-adapt=2 / b-pyramid / bframe-bias=0 / rc-lookahead=40 / lookahead-slices=0 / scenecut=40 / no-hist-scenecut / radl=0 / no-splice / no-intra-refresh / ctu=32 / min-cu-size=8 / rect / amp / max-tu-size=32 / tu-inter-depth=4 / tu-intra-depth=4 / limit-tu=1 / rdoq-level=2 / dynamic-rd=0.00 / no-ssim-rd / signhide / no-tskip / nr-intra=0 / nr-inter=0 / no-constrained-intra / no-strong-intra-smoothing / max-merge=5 / limit-refs=3 / no-limit-modes / me=3 / subme=7 / merange=57 / temporal-mvp / no-frame-dup / no-hme / weightp / weightb / no-analyze-src-pics / deblock=-2:-2 / no-sao / no-sao-non-deblock / rd=6 / selective-sao=0 / no-early-skip / no-rskip / no-fast-intra / no-tskip-fast / no-cu-lossless / b-intra / no-splitrd-skip / rdpenalty=0 / psy-rd=2.00 / psy-rdoq=1.00 / no-rd-refine / no-lossless / cbqpoffs=0 / crqpoffs=0 / rc=crf / crf=19.0 / qcomp=0.60 / qpstep=4 / stats-write=0 / stats-read=0 / vbv-maxrate=50000 / vbv-bufsize=50000 / vbv-init=0.9 / min-vbv-fullness=50.0 / max-vbv-fullness=80.0 / crf-max=0.0 / crf-min=0.0 / ipratio=1.40 / pbratio=1.30 / aq-mode=1 / aq-strength=1.00 / no-cutree / zone-count=0 / no-strict-cbr / qg-size=32 / no-rc-grain / qpmax=69 / qpmin=0 / no-const-vbv / sar=1 / overscan=0 / videoformat=5 / range=0 / colorprim=2 / transfer=2 / colormatrix=2 / chromaloc=0 / display-window=0 / cll=0,0 / min-luma=0 / max-luma=1023 / log2-max-poc-lsb=8 / vui-timing-info / vui-hrd-info / slices=1 / no-opt-qp-pps / no-opt-ref-list-length-pps / no-multi-pass-opt-rps / scenecut-bias=0.00 / no-opt-cu-delta-qp / no-aq-motion / no-hdr10 / no-hdr10-opt / no-dhdr10-opt / no-idr-recovery-sei / analysis-reuse-level=0 / analysis-save-reuse-level=0 / analysis-load-reuse-level=0 / scale-factor=0 / refine-intra=0 / refine-inter=0 / refine-mv=1 / refine-ctu-distortion=0 / no-limit-sao / ctu-info=0 / no-lowpass-dct / refine-analysis-type=0 / copy-pic=1 / max-ausize-factor=1.0 / no-dynamic-refine / no-single-sei / no-hevc-aq / no-svt / no-field / qp-adaptation-range=1.00 / scenecut-aware-qp=0conformance-window-offsets / right=0 / bottom=0 / decoder-max-rate=0 / no-vbv-live-multi-pass / no-mcstf / no-sbrc
Язык : English
Default : Да
Forced : Нет
Аудио #1
Идентификатор : 2
ID in the original source medium : 4354 (0x1102)
Формат : MLP FBA 16-ch
Формат/Информация : Meridian Lossless Packing FBA with 16-channel presentation
Коммерческое название : Dolby TrueHD with Dolby Atmos
Идентификатор кодека : A_TRUEHD
Продолжительность : 2 ч. 22 м.
Вид битрейта : Переменный
Битрейт : 6 100 Кбит/сек
Максимальный битрейт : 627 Кбит/сек
Каналы : 8 каналов
Channel layout : L R C LFE Ls Rs Lb Rb
Частота : 48,0 КГц
Частота кадров : 1 200,000 кадров/сек (40 SPF)
Битовая глубина : 24 бит
Метод сжатия : Без потерь
Размер потока : 6,05 Гбайт (21%)
Заголовок : Dolby TrueHD with Dolby Atmos 7.1
Язык : English
Default : Да
Forced : Нет
Носитель оригинала : Blu-ray
Number of dynamic objects : 13
Bed channel count : 1 канал
Bed channel configuration : LFE
Аудио #2
Идентификатор : 3
ID in the original source medium : 4353 (0x1101)
Формат : DTS XLL
Формат/Информация : Digital Theater Systems
Коммерческое название : DTS-HD Master Audio
Идентификатор кодека : A_DTS
Продолжительность : 2 ч. 22 м.
Вид битрейта : Переменный
Битрейт : 4 768 Кбит/сек
Каналы : 6 каналов
Channel layout : C L R Ls Rs LFE
Частота : 48,0 КГц
Частота кадров : 93,750 кадра/сек (512 SPF)
Битовая глубина : 24 бит
Метод сжатия : Без потерь
Размер потока : 4,73 Гбайт (17%)
Заголовок : DTS-HD Master Audio 5.1
Язык : English
Default : Нет
Forced : Нет
Носитель оригинала : Blu-ray
Аудио #3
Идентификатор : 4
ID in the original source medium : 4352 (0x1100)
Формат : PCM
Настройки формата : Little / Signed
Идентификатор кодека : A_PCM/INT/LIT
Продолжительность : 2 ч. 22 м.
Вид битрейта : Постоянный
Битрейт : 2 304 Кбит/сек
Каналы : 2 канала
Частота : 48,0 КГц
Частота кадров : 30,000 кадров/сек (1600 SPF)
Битовая глубина : 24 бит
Размер потока : 2,29 Гбайт (8%)
Заголовок : PCM 2.0
Язык : English
Default : Нет
Forced : Нет
Носитель оригинала : Blu-ray
Меню
00:00:00.000 : en:Intro
00:02:42.028 : en:Get Off My Cloud
00:06:19.612 : en:The Last Time
00:10:33.199 : en:It s Only Rock n Roll (But I Like It)
00:15:11.410 : en:Paint It Black
00:20:39.004 : en:Gimme Shelter (with Lady Gaga)
00:27:49.467 : en:Wild Horses
00:33:39.350 : en:Going Down (with John Mayer and Gary Clark Jr.)
00:40:20.518 : en:Dead Flowers
00:46:00.257 : en:Who Do You Love? (with The Black Keys)
00:50:22.753 : en:Doom And Gloom
00:54:58.928 : en:One More Shot
00:58:18.862 : en:Miss You
01:05:59.288 : en:Honky Tonk Women
01:14:59.461 : en:Before They Make Me Run
01:19:28.697 : en:Happy
01:23:39.948 : en:Midnight Rambler (with Mick Taylor)
01:35:53.080 : en:Start Me Up
01:40:29.957 : en:Tumbling Dice (with Bruce Springsteen)
01:45:25.819 : en:Brown Sugar
01:50:54.047 : en:Sympathy For The Devil
01:58:50.990 : en:You Can t Always Get What You Want
02:07:41.954 : en:Jumpin Jack Flash
02:13:29.001 : en:(I Can t Get No) Satisfaction
02:20:21.679 : en:End Credits
[Profile] [PM]
Display posts:    
Reply to topic

Current time is: 19-Jul 12:05

All times are UTC + 3



You cannot post new topics in this forum
You cannot reply to topics in this forum
You cannot edit your posts in this forum
You cannot delete your posts in this forum
You cannot vote in polls in this forum
You cannot attach files in this forum
You cannot download files in this forum