Человек-паук: Паутина вселенных / Spider-Man: Across the Spider-Verse (2023) BDRip-AVC | MovieDalen

Reply to topic
 
Author Message

HardwareMining ®

Gender: Male

Longevity: 4 years 9 months

Posts: 650

Post 31-Aug-2023 15:37

[Quote]

Человек-паук: Паутина вселенных / Spider-Man: Across the Spider-Verse
Год выпуска: 2023
Жанр: мультфильм, фантастика, фэнтези, боевик, приключения
Выпущено: США | Arad Productions, Lord Miller, Marvel Entertainment, Pascal Pictures, Sony Pictures Animation, Sony Pictures Entertainment (SPE)
Режиссеры: Жуакин Душ Сантуш, Кемп Пауэрс, Джастин Томпсон
В ролях: Шамеик Мур, Хейли Стайнфелд, Брайан Тайри Генри, Луна Лорен Велес, Джейк Джонсон, Оскар Айзек, Джейсон Шварцман, Исса Рэй, Дэниэл Калуя, Каран Сони
О фильме:
После воссоединения с Гвен Стейси дружелюбный сосед Человек-Паук попадает из Бруклина в Мультивселенную, где встречает команду Паучков, защищающих само её существование. Пытаясь справиться с новой угрозой, Майлз сталкивается с Пауками из других вселенных. Настаёт момент, когда ему необходимо решить, что значит быть героем, спасающим тех, кого любишь больше всего.

Качество: BDRip-AVC
Видео: AVC, 1024x424 (2.40:1), 23,976 fps, 2560 Kbit/s (0.246 bit/pixel)
Аудио: русский, AC3, 5.1, 48 kHz, 384 kbps CBR
Продолжительность: 02:20:05
Перевод: Дублированный | MovieDalen
Субтитры: Русские | Forced

Скриншоты

MediaInfo

General
Unique ID : 178222717565364825217311849516713414273 (0x86147264F3F7B8A297B6179D3C788E81)
Complete name : G:\GF\Spider-Man.Across.the.Spider-Verse.2023.BDRip.AVC.Rip.by.HardwareMining.R.G.Generalfilm.mkv
Format : Matroska
Format version : Version 4
File size : 2.88 GiB
Duration : 2 h 20 min
Overall bit rate : 2 948 kb/s
Frame rate : 23.976 FPS
Movie name : Spider-Man.Across.the.Spider-Verse.2023.BDRip.AVC.Rip.by.HardwareMining.R.G.Generalfilm
Encoded date : 2023-08-31 12:04:03 UTC
Writing application : mkvmerge v6.8.0 ('Theme for Great Cities') 64bit built on Mar 2 2014 21:34:26
Writing library : libebml v1.3.0 + libmatroska v1.4.1
Cover : Yes
Attachments : cover0.png
Video
ID : 1
Format : AVC
Format/Info : Advanced Video Codec
Format profile : High@L4.1
Format settings : CABAC / 10 Ref Frames
Format settings, CABAC : Yes
Format settings, Reference frames : 10 frames
Codec ID : V_MPEG4/ISO/AVC
Duration : 2 h 20 min
Bit rate : 2 560 kb/s
Width : 1 024 pixels
Height : 424 pixels
Display aspect ratio : 2.40:1
Frame rate mode : Constant
Frame rate : 23.976 FPS
Color space : YUV
Chroma subsampling : 4:2:0
Bit depth : 8 bits
Scan type : Progressive
Bits/(Pixel*Frame) : 0.246
Stream size : 2.45 GiB (85%)
Writing library : x264 core 130 r2273 b3065e6
Encoding settings : cabac=1 / ref=10 / deblock=1:-2:-1 / analyse=0x3:0x133 / me=umh / subme=10 / psy=1 / psy_rd=1.00:0.08 / mixed_ref=1 / me_range=32 / chroma_me=1 / trellis=2 / 8x8dct=1 / cqm=0 / deadzone=21,11 / fast_pskip=0 / chroma_qp_offset=-3 / threads=6 / lookahead_threads=1 / sliced_threads=0 / nr=0 / decimate=1 / interlaced=0 / bluray_compat=0 / constrained_intra=0 / bframes=10 / b_pyramid=2 / b_adapt=2 / b_bias=0 / direct=3 / weightb=1 / open_gop=0 / weightp=2 / keyint=240 / keyint_min=23 / scenecut=40 / intra_refresh=0 / rc=2pass / mbtree=0 / bitrate=2560 / ratetol=1.0 / qcomp=0.60 / qpmin=0 / qpmax=69 / qpstep=4 / cplxblur=20.0 / qblur=0.5 / ip_ratio=1.40 / pb_ratio=1.30 / aq=2:1.00
Language : English
Default : Yes
Forced : No
Color range : Limited
Color primaries : BT.709
Transfer characteristics : BT.709
Matrix coefficients : BT.709
Audio
ID : 2
Format : AC-3
Format/Info : Audio Coding 3
Commercial name : Dolby Digital
Codec ID : A_AC3
Duration : 2 h 20 min
Bit rate mode : Constant
Bit rate : 384 kb/s
Channel(s) : 6 channels
Channel layout : L R C LFE Ls Rs
Sampling rate : 48.0 kHz
Frame rate : 31.250 FPS (1536 SPF)
Compression mode : Lossy
Stream size : 385 MiB (13%)
Title : Dub | MovieDalen
Language : Russian
Service kind : Complete Main
Default : Yes
Forced : Yes
Text
ID : 3
Format : UTF-8
Codec ID : S_TEXT/UTF8
Codec ID/Info : UTF-8 Plain Text
Title : Forced
Language : Russian
Default : Yes
Forced : Yes
Menu
00:00:00.000 : en:Chapter 01
00:07:44.505 : en:Chapter 02
00:16:55.764 : en:Chapter 03
00:27:08.710 : en:Chapter 04
00:34:51.047 : en:Chapter 05
00:44:36.131 : en:Chapter 06
00:52:33.817 : en:Chapter 07
00:58:33.259 : en:Chapter 08
01:03:57.875 : en:Chapter 09
01:12:23.547 : en:Chapter 10
01:21:45.275 : en:Chapter 11
01:31:09.922 : en:Chapter 12
01:38:14.305 : en:Chapter 13
01:48:01.933 : en:Chapter 14
01:55:30.256 : en:Chapter 15
02:05:27.311 : en:Chapter 16
Релиз от:
[Profile] [PM]
Display posts:    
Reply to topic

Current time is: 19-Jul 12:20

All times are UTC + 3



You cannot post new topics in this forum
You cannot reply to topics in this forum
You cannot edit your posts in this forum
You cannot delete your posts in this forum
You cannot vote in polls in this forum
You cannot attach files in this forum
You cannot download files in this forum