Поющий офис. Вологда [1 сезон: 6 выпуск] (2023) HDTV 1080р от Files-x

Reply to topic
 
Author Message

Nicodem ®

Gender: Male

Longevity: 4 years 10 months

Posts: 1357

Post 16-Sep-2023 13:30

[Quote]

Поющий офис
Год выпуска: 2023
Жанр: Караоке-шоу, музыка, развлекательный
Выпущено: Россия, Пятница
Ведущие: Кирилл Нечаев
О фильме: 11 августа 2023 года на «Пятнице!» стартует караоке-шоу "Поющий офис", где в народном караоке-баттле столкнутся работники автомоек, салонов красоты, музеев, птицефабрик, железных дорог, спортивных клубов и другие трудовые коллективы страны. Участники карароке-шоу "Поющий офис" споют вместе с такими народными звёздами, как Татьяна Буланова, Родион Газманов, группы "Демо" и "Вирус" и другими...Ведущим проекта стал Кирилл Нечаев (Nechaev) – музыкант, блогер и пародист. Он проедет по стране на караоке-траке чтобы выяснить, какой город поет лучше.
Качество: HDTV 1080р
Видео: MPEG-4 AVC, ~ 6510 Кбит/с, 1920x1080, 25 кадр/с
Аудио: MP2, 2 ch, 192 Кбит/с
Продолжительность: 00:56:23
Перевод: Не требуется
Субтитры: нет

Скриншоты



Правила

В каждом выпуске участвуют сотрудники четырёх разных офисов одного города, которые выступят и споют на центральных городских площадях. Их ждёт три песенных раунда: "рояль в кустах", где участники исполнят самостоятельно выбранную песню, "подстава" – где предстоит спеть песню, выбранную командой-конкурентом, и "дуэль со звездой", где участников ждёт исполнение песни популярного артиста с ним же на сцене.
Определять победителя будут зрители открытых концертов с помощью шумомера: им будут замеряться децибелы зрительских симпатий. Чем громче овации, тем больше шансы на победу. Команда-победитель получит денежный приз и звание самого поющего офиса города.

MediaInfo

General
ID : 1 (0x1)
Complete name : C:06.Поющий офис.s01.E06 (Вологда).(2023).HDTV.(1080р).by.Nicodem.Files-x [Эфир от 15.09.23].ts
Format : MPEG-TS
File size : 2.78 GiB
Duration : 56mn 23s
Overall bit rate : 7 053 Kbps
Maximum Overall bit rate : 35.5 Mbps
Video
ID : 4113 (0x1011)
Menu ID : 1 (0x1)
Format : AVC
Format/Info : Advanced Video Codec
Format profile : High@L4.1
Format settings, CABAC : No
Format settings, ReFrames : 3 frames
Codec ID : 27
Duration : 56mn 23s
Bit rate mode : Variable
Bit rate : 6 510 Kbps
Maximum bit rate : 40.0 Mbps
Width : 1 920 pixels
Height : 1 080 pixels
Display aspect ratio : 16:9
Frame rate : 25.000 fps
Color space : YUV
Chroma subsampling : 4:2:0
Bit depth : 8 bits
Scan type : Progressive
Bits/(Pixel*Frame) : 0.126
Stream size : 2.56 GiB (92%)
Language : English
Audio
ID : 4352 (0x1100)
Menu ID : 1 (0x1)
Format : MPEG Audio
Format version : Version 1
Format profile : Layer 2
Codec ID : 4
Duration : 56mn 23s
Bit rate mode : Constant
Bit rate : 192 Kbps
Channel(s) : 2 channels
Sampling rate : 48.0 KHz
Compression mode : Lossy
Stream size : 77.4 MiB (3%)
Релиз от:

Release was prepared by RG Files-x

[Profile] [PM]
Display posts:    
Reply to topic

Current time is: 30-Sep 22:08

All times are UTC + 3



You cannot post new topics in this forum
You cannot reply to topics in this forum
You cannot edit your posts in this forum
You cannot delete your posts in this forum
You cannot vote in polls in this forum
You cannot attach files in this forum
You cannot download files in this forum