Баба Яга спасает мир (2023) WEB-DLRip от Generalfilm | КПК

Reply to topic
 
Author Message

mjjhec ®

Gender: Male

Longevity: 5 years

Posts: 1893

Location: СССР

Post 20-Nov-2023 11:24

[Quote]

Баба Яга спасает мир Год выпуска: 2023
Жанр: Фэнтези, комедия, семейный, приключения
Выпущено: Россия, Fresh Film, Лайм Синема
Режиссер: Карен Захаров
В ролях: Глафира Тарханова, Людмила Артемьева, Олеся Железняк, Григорий Сиятвинда, Алексей Дмитриев, Александр Ильин, Савелий Кудряшов, Марат Башаров, Ольга Науменко, Ян Цапник.
О фильме: Любопытный школьник Сенька каким-то чудом попадает в сказочный древний лес. Он скрыт от людских глаз мощным заклятием Бабы Яги, призванным защитить людей и весь мир от дремлющих там темных сил. В лесу явно творится что-то неладное. Тревожные сигналы возвещают, что заклятие больше не действует, и пробуждение зловещего волшебства и давно поверженных врагов — лишь вопрос времени. Чтобы наложить заклятие снова, Яга вынуждена отправиться в современный город на поиск мощнейшего оружия волшебников, дивноцвета. Там ее ожидает встреча с множеством причуд современного мира, а в темном подземелье уже тысячу лет прячется жаждущий мести Кощей Бессмертный, ведь именно Яга помогла одолеть его много веков назад.
Качество: WEB-DLRip | КПК
Видео: H.264, 640x264 (2.40:1), 24 fps, 400 kb/s
Аудио: AAC, 48 kHz, 2 ch, 128 kb/s
Продолжительность: 01:30:00
Перевод: Не требуется

Скриншоты


MediaInfo

Complete name : F:\Rip\Baba.Yaga.spasaet.mir.2023.WEB-DLRip.by.mjjhec.mp4
Format : MPEG-4
Format profile : Base Media
Codec ID : isom (isom/avc1)
File size : 342 MiB
Duration : 1 h 30 min
Overall bit rate mode : Variable
Overall bit rate : 532 kb/s
Frame rate : 24.000 FPS
Encoded date : 2023-11-20 08:03:27 UTC
Tagged date : 2023-11-20 08:03:27 UTC
Video
ID : 1
Format : AVC
Format/Info : Advanced Video Codec
Format profile : High@L4.1
Format settings : CABAC / 14 Ref Frames
Format settings, CABAC : Yes
Format settings, Reference : 14 frames
Codec ID : avc1
Codec ID/Info : Advanced Video Coding
Duration : 1 h 30 min
Bit rate : 400 kb/s
Maximum bit rate : 1 446 kb/s
Width : 640 pixels
Height : 264 pixels
Display aspect ratio : 2.40:1
Frame rate mode : Constant
Frame rate : 24.000 FPS
Color space : YUV
Chroma subsampling : 4:2:0
Bit depth : 8 bits
Scan type : Progressive
Bits/(Pixel*Frame) : 0.099
Stream size : 257 MiB (75%)
Writing library : x264 core 125 r2208 d9d2288
Encoding settings : cabac=1 / ref=14 / deblock=1:-1:-1 / analyse=0x3:0x113 / me=umh / subme=10 / psy=1 / psy_rd=1.00:0.10 / mixed_ref=1 / me_range=32 / chroma_me=1 / trellis=2 / 8x8dct=1 / cqm=0 / deadzone=21,11 / fast_pskip=0 / chroma_qp_offset=-3 / threads=6 / lookahead_threads=1 / sliced_threads=0 / nr=0 / decimate=0 / interlaced=0 / bluray_compat=0 / constrained_intra=0 / bframes=11 / b_pyramid=2 / b_adapt=2 / b_bias=0 / direct=3 / weightb=1 / open_gop=0 / weightp=2 / keyint=240 / keyint_min=23 / scenecut=40 / intra_refresh=0 / rc=2pass / mbtree=0 / bitrate=400 / ratetol=1.0 / qcomp=0.60 / qpmin=0 / qpmax=69 / qpstep=4 / cplxblur=20.0 / qblur=0.5 / ip_ratio=1.40 / pb_ratio=1.30 / aq=1:1.00
Encoded date : 2023-11-20 08:03:27 UTC
Tagged date : 2023-11-20 08:03:35 UTC
Codec configuration box : avcC
Audio
ID : 2
Format : AAC LC
Format/Info : Advanced Audio Codec Low Complexity
Codec ID : mp4a-40-2
Duration : 1 h 30 min
Bit rate mode : Variable
Bit rate : 128 kb/s
Maximum bit rate : 135 kb/s
Channel(s) : 2 channels
Channel layout : L R
Sampling rate : 48.0 kHz
Frame rate : 46.875 FPS (1024 SPF)
Compression mode : Lossy
Stream size : 82.4 MiB (24%)
Encoded date : 2023-11-20 08:03:33 UTC
Tagged date : 2023-11-20 08:03:35 UTC
Релиз от:
[Profile] [PM]
Display posts:    
Reply to topic

Current time is: 04-Dec 05:53

All times are UTC + 3



You cannot post new topics in this forum
You cannot reply to topics in this forum
You cannot edit your posts in this forum
You cannot delete your posts in this forum
You cannot vote in polls in this forum
You cannot attach files in this forum
You cannot download files in this forum