Я знаю твои секреты. Кукушка [12 сезон: 1-4 серии из 4] (2023) SATRip от A®GO

Reply to topic
 
Author Message

Argo ®

Gender: Male

Longevity: 6 months 8 days

Posts: 27

Post 30-Nov-2023 15:16

[Quote]

Я знаю твои секреты. Кукушка Год выпуска: 2023
Жанр: Детектив
Выпущено: Россия, КиноХит Продакшн
Режиссер: Ашот Кещян
В ролях: Агата Муцениеце, Антон Хабаров, Анастасия Панина, Валерия Бурдужа, Александр Печенин, Евгений Кошелев, Кирилл Белобородов, Николь Спиридонова, Денис Яковлев, Екатерина Соломатина, Максим Глотов, Арсений Тополага, Евгения Бордзиловская, Олег Курлов, Светлана Свибильская, Роман Богданов
О фильме: В парке найдено тело девушки. В её сумочке – англо-русский словарь с вырванной страницей. Команда Бурова выходит на серию убийств четырёхлетней давности: маньяк по кличке Консул подбрасывал жертвам словари иностранных языков. Идя по следу Консула, Нина и её коллеги обнаруживают в деле много странных нестыковок. Тем временем появляется новый труп – и почерк убийства напоминает уже другую серию…
Качество: SATRip
Видео: MPEG-4 AVC, ~ 1700 Кбит/с, 720x400
Аудио: MP3, 2 ch, 192 Кбит/с
Продолжительность: ~ 00:44:00
Перевод: Не требуется [Русский]
Cубтитры: нет

Скриншоты


MediaInfo

MediaInfoLib - v0.7.58
General
Complete name : D:\Диск\Я знаю твои секреты.Кукушка_12.сезон_1.серия_SATRip_A®GO.avi
Format : AVI
Format/Info : Audio Video Interleave
File size : 595 MiB
Duration : 43mn 48s
Overall bit rate : 1 899 Kbps
Writing application : Lavf58.12.100
Video
ID : 0
Format : AVC
Format/Info : Advanced Video Codec
Format profile : Main@L3.0
Format settings, CABAC : Yes
Format settings, ReFrames : 2 frames
Codec ID : H264
Duration : 43mn 48s
Bit rate : 1 694 Kbps
Width : 720 pixels
Height : 400 pixels
Display aspect ratio : 16:9
Frame rate mode : Variable
Frame rate : 25.000 fps
Color space : YUV
Chroma subsampling : 4:2:0
Bit depth : 8 bits
Scan type : Progressive
Bits/(Pixel*Frame) : 0.235
Stream size : 531 MiB (89%)
Audio
ID : 1
Format : MPEG Audio
Format version : Version 1
Format profile : Layer 3
Mode : Joint stereo
Codec ID : 55
Codec ID/Hint : MP3
Duration : 43mn 48s
Bit rate mode : Constant
Bit rate : 192 Kbps
Channel(s) : 2 channels
Sampling rate : 48.0 KHz
Compression mode : Lossy
Stream size : 60.2 MiB (10%)
Alignment : Aligned on interleaves
Interleave, duration : 24 ms (0.60 video frame)
Interleave, preload duration : 24 ms
Релиз от: A®GO
Related releases "Я знаю твои секреты" (10):
Added Topic title Size
5 Dec 23  Я знаю твои секреты. Кукушка [12 сезон: 1-4 серии из 4] (2023) HDTVRip-AVC от Generalfilm | КПК 792 MB
5 Dec 23  Я знаю твои секреты. Мёртвые души [11 сезон: 1-4 серии из 4] (2023) HDTVRip-AVC от Generalfilm | КПК 791 MB
1 Dec 23  Я знаю твои секреты. Кукушка [12 сезон: 1-4 серии из 4] (2023) HDTVRip-AVC от Files-x 2.68 GB
1 Dec 23  Я знаю твои секреты. Мёртвые души [11 сезон: 1-4 серии из 4] (2023) HDTVRip-AVC от Files-x 2.67 GB
29 Nov 23  Я знаю твои секреты. Мёртвые души [11 сезон: 1-4 серии из 4] (2023) SATRip от A®GO 2.31 GB
22 May 23  Я знаю твои секреты. Ребус для Нины [10 сезон: 1-4 серии из 4] (2023) HDTVRip-AVC от Generalfilm | КПК 792 MB
22 May 23  Я знаю твои секреты. Галатея [9 сезон: 1-4 серии из 4] (2022) WEBRip-AVC от Generalfilm | КПК 794 MB
19 May 23  Я знаю твои секреты. Галатея [9 сезон: 1-4 серии из 4] (2022) WEBRip от Files-x 2.19 GB
19 May 23  Я знаю твои секреты. Ребус для Нины [10 сезон: 1-4 серии из 4] (2023) HDTVRip от Files-x 2.19 GB
18 May 23  Я знаю твои секреты. Галатея [9 сезон: 1-4 серии из 4] (2022) WEBRip-AVC от Files-x 2.19 GB
Find all related releases Я знаю твои секреты
[Profile] [PM]
Display posts:    
Reply to topic

Current time is: 21-Feb 05:51

All times are UTC + 3



You cannot post new topics in this forum
You cannot reply to topics in this forum
You cannot edit your posts in this forum
You cannot delete your posts in this forum
You cannot vote in polls in this forum
You cannot attach files in this forum
You cannot download files in this forum