Леониду Гайдаю-100 (2023) SATRip от Files-x

Reply to topic
 
Author Message

Argo ®

Gender: Male

Longevity: 6 months 8 days

Posts: 27

Post 30-Dec-2023 12:25

[Quote]

Леониду Гайдаю-100 Год выпуска: 2023
Жанр: Концерт
Выпущено: Россия
О фильме: «Леониду Гайдаю – 100» — это уникальная возможность окунуться в золотой век советского кинематографа и отдать дань уважения великому режиссёру Леониду Гайдаю. В рамках концерта будут представлены самые яркие моменты из его самых известных комедий. Насладитесь блестящим актёрским мастерством любимых советских актёров, которые оживляют на сцене своих культовых персонажей. Услышьте знакомые мелодии, написанные для фильмов Гайдая, в живом исполнении симфонического оркестра. Этот киноконцерт станет незабываемым событием для всех любителей советского кино и подарит вам массу положительных эмоций и хорошего настроения.
Качество: SATRip
Видео: XviD, ~ 1700 Кбит/с, 720x400
Аудио: MP3, 2 ch, 192 Кбит/с
Продолжительность: 01:11:44
Перевод: Не требуется [Русский]
Cубтитры: нет

Скриншоты


MediaInfo

MediaInfoLib - v0.7.58
General
Complete name : D:\Диск\Леониду Гайдаю-100.Киноконцерт.2023.SATRip_A®GO.Files-x.avi
Format : AVI
Format/Info : Audio Video Interleave
File size : 975 MiB
Duration : 1h 11mn
Overall bit rate : 1 901 Kbps
Writing application : VirtualDubMod 1.5.10.3 | www.virtualdub-fr.org || (build 2550/release)
Writing library : VirtualDubMod build 2550/release
Video
ID : 0
Format : MPEG-4 Visual
Format profile : Advanced Simple@L5
Format settings, BVOP : 1
Format settings, QPel : No
Format settings, GMC : No warppoints
Format settings, Matrix : Default (MPEG)
Codec ID : XVID
Codec ID/Hint : XviD
Duration : 1h 11mn
Bit rate : 1 699 Kbps
Width : 720 pixels
Height : 400 pixels
Display aspect ratio : 16:9
Frame rate : 25.000 fps
Color space : YUV
Chroma subsampling : 4:2:0
Bit depth : 8 bits
Scan type : Progressive
Compression mode : Lossy
Bits/(Pixel*Frame) : 0.236
Stream size : 872 MiB (89%)
Writing library : XviD 1.2.1 (UTC 2008-12-04)
Audio
ID : 1
Format : MPEG Audio
Format version : Version 1
Format profile : Layer 3
Codec ID : 55
Codec ID/Hint : MP3
Duration : 1h 11mn
Bit rate mode : Constant
Bit rate : 192 Kbps
Channel(s) : 2 channels
Sampling rate : 48.0 KHz
Compression mode : Lossy
Stream size : 98.5 MiB (10%)
Alignment : Aligned on interleaves
Interleave, duration : 40 ms (1.00 video frame)
Interleave, preload duration : 504 ms
Writing library : LAME3.99r
Encoding settings : -m s -V 4 -q 2 -lowpass 18.6 -b 192
Релиз от: A®GO

Release was prepared by RG Files-x

[Profile] [PM]
Display posts:    
Reply to topic

Current time is: 21-Feb 03:55

All times are UTC + 3



You cannot post new topics in this forum
You cannot reply to topics in this forum
You cannot edit your posts in this forum
You cannot delete your posts in this forum
You cannot vote in polls in this forum
You cannot attach files in this forum
You cannot download files in this forum